<svg xmlns="http://www.w3.org/2000/svg">
<defs>
<font
   horiz-adv-x="2048"
   id="font2035"
   horiz-origin-x="0"
   horiz-origin-y="0"
   vert-origin-x="512"
   vert-origin-y="768"
   vert-adv-y="1024">
<!-- Data copyright (C) URW Software &amp; Type GbmH., additional data copyright The Font Bureau, Inc. Copyright 1994 Microsoft Corporation. All rights reserved. -->
<!-- Copyright: Copyright 2019 Adobe System Incorporated. All rights reserved. -->
<font-face
   font-family="CopperplateGothic-Bold"
   units-per-em="2048"
   underline-position="-206"
   underline-thickness="174"
   id="font-face1551" />
<missing-glyph
   horiz-adv-x="512"
   d="M51,0l0,1365l410,0l0,-1365M410,51l0,1263l-308,0l0,-1263z"
   id="missing-glyph1553" />
<glyph
   unicode=" "
   horiz-adv-x="512"
   id="glyph1555" />
<glyph
   unicode="!"
   horiz-adv-x="774"
   d="M518,480l-262,0l0,32C283,519 301,528 308,537C315,546 319,562 319,585C319,599 318,614 316,630l-73,615C239,1280 234,1303 227,1312C220,1321 203,1328 177,1333l0,32l420,0l0,-32C571,1328 555,1321 548,1312C541,1303 535,1280 531,1245l-73,-615C456,614 455,599 455,585C455,561 459,545 466,536C473,527 491,519 518,512M387,304C433,304 472,288 504,256C535,224 551,185 551,139C551,94 535,56 503,24C470,-8 432,-24 387,-24C342,-24 303,-8 271,25C239,57 223,96 223,141C223,186 239,224 271,256C302,287 341,303 387,304z"
   id="glyph1557" />
<glyph
   unicode="&quot;"
   horiz-adv-x="1137"
   d="M403,803l0,-29l-236,0l0,29C192,810 208,817 215,826C221,834 224,851 224,877C224,888 223,898 221,909l-66,348C150,1290 145,1311 140,1318C134,1325 119,1331 96,1336l0,29l378,0l0,-29C450,1331 435,1325 430,1318C425,1311 420,1290 415,1257l-66,-348C347,899 346,888 346,875C346,850 349,834 356,826C362,817 378,810 403,803M971,803l0,-29l-236,0l0,29C760,810 776,817 783,826C789,834 792,851 792,877C792,888 791,899 789,909l-66,348C718,1290 713,1311 708,1318C702,1325 687,1331 664,1336l0,29l378,0l0,-29C1019,1331 1004,1325 999,1318C993,1311 988,1290 983,1257l-66,-348C915,899 914,888 914,875C914,850 917,834 924,826C930,817 946,810 971,803z"
   id="glyph1559" />
<glyph
   unicode="#"
   horiz-adv-x="1570"
   d="M1235,1054l166,0C1422,1054 1438,1059 1451,1069C1464,1079 1475,1096 1486,1120l32,0l-64,-341l-34,0C1418,802 1413,819 1404,828C1395,837 1380,842 1360,842l-167,0l-63,-326l166,0C1317,516 1333,521 1346,530C1359,539 1370,556 1381,579l32,0l-64,-340l-34,0C1313,263 1308,280 1299,290C1290,299 1276,304 1255,304l-166,0l-39,-201C1049,100 1049,94 1049,87C1049,70 1052,58 1059,51C1066,44 1079,37 1100,30l-7,-34l-340,0l7,34C785,37 804,46 815,57C826,67 834,82 838,103l39,201l-328,0l-39,-201C509,100 509,94 509,87C509,70 512,58 519,51C526,44 539,37 560,30l-6,-34l-340,0l6,34C246,37 265,46 276,57C287,67 295,82 299,103l39,201l-167,0C151,304 135,299 122,290C109,280 97,263 86,239l-34,0l66,340l34,0C154,555 159,539 168,530C177,521 191,516 212,516l167,0l63,326l-166,0C255,842 239,838 227,829C214,820 202,803 191,779l-34,0l66,341l34,0C259,1095 264,1078 273,1069C282,1059 296,1054 317,1054l167,0l38,201C523,1259 524,1265 524,1272C524,1288 521,1300 514,1308C507,1315 493,1322 473,1327l6,33l340,0l-7,-33C787,1321 769,1313 758,1302C746,1291 738,1275 734,1255l-39,-201l328,0l39,201C1063,1259 1063,1265 1063,1272C1063,1288 1060,1300 1053,1308C1046,1315 1032,1322 1012,1327l6,33l340,0l-6,-33C1327,1321 1308,1313 1297,1302C1285,1291 1277,1275 1273,1255M918,516l64,326l-328,0l-64,-326z"
   id="glyph1561" />
<glyph
   unicode="$"
   horiz-adv-x="1461"
   d="M821,837l36,-3C1024,819 1151,782 1238,722C1283,691 1319,649 1346,596C1372,543 1385,486 1385,426C1385,334 1359,254 1306,186C1253,118 1176,66 1075,30C992,0 908,-17 821,-21l0,-65C821,-107 826,-122 835,-133C844,-144 861,-152 885,-159l0,-32l-278,0l0,32C631,-152 648,-144 657,-133C666,-122 671,-107 671,-86l0,65C510,-9 346,39 180,122C165,129 154,133 145,133C136,133 123,126 104,111l-29,14l148,335l29,-13C252,440 252,436 252,433C252,397 273,364 315,335C358,305 414,279 481,256C548,233 611,219 671,214l0,341C574,564 501,574 452,585C403,596 358,612 315,633C254,664 206,709 172,768C141,823 125,885 125,954C125,1083 174,1186 272,1264C369,1342 502,1384 671,1389l0,49C671,1458 666,1473 657,1484C648,1495 631,1503 607,1510l0,32l279,0l0,-32C861,1503 844,1495 835,1484C826,1473 821,1458 821,1438l0,-54C884,1379 948,1367 1014,1348C1079,1329 1164,1297 1268,1253C1285,1246 1299,1242 1309,1242C1323,1242 1339,1250 1358,1265l29,-15l-164,-321l-28,16C1196,950 1196,956 1196,961C1196,995 1153,1034 1068,1077C982,1120 900,1144 821,1150M671,854l0,301C616,1151 571,1143 534,1131C493,1118 461,1098 437,1071C413,1044 401,1015 401,984C401,960 409,939 426,920C443,901 465,888 494,880C534,869 593,860 671,854M821,538l0,-325C887,220 941,234 982,254C1058,291 1096,342 1096,406C1096,427 1089,447 1076,466C1062,484 1044,497 1023,504C986,517 918,529 821,538z"
   id="glyph1563" />
<glyph
   unicode="%"
   horiz-adv-x="1809"
   d="M416,1377C513,1377 594,1348 658,1289C730,1223 766,1133 766,1019C766,911 730,824 658,758C594,699 514,670 417,670C320,670 240,699 176,758C104,825 68,913 68,1024C68,1136 104,1224 176,1289C240,1346 320,1376 416,1377M417,1234C365,1234 323,1215 290,1176C257,1137 241,1086 241,1023C241,961 257,911 290,872C323,833 365,813 417,813C468,813 511,833 544,872C577,911 593,960 593,1021C593,1085 577,1136 545,1175C513,1214 470,1233 417,1234M1391,695C1488,695 1569,666 1633,607C1705,541 1741,451 1741,337C1741,229 1705,142 1633,76C1569,17 1489,-12 1392,-12C1295,-12 1215,17 1151,76C1079,142 1043,231 1043,342C1043,454 1079,542 1151,607C1215,664 1295,694 1391,695M1392,552C1340,552 1298,533 1265,494C1232,455 1216,404 1216,341C1216,279 1232,229 1265,190C1298,151 1340,131 1392,131C1443,131 1486,151 1519,190C1552,229 1568,278 1568,339C1568,403 1552,454 1520,493C1488,532 1445,551 1392,552M1380,1192l-804,-1040C552,121 540,98 540,84C540,57 560,40 600,32l0,-32l-356,0l0,32C278,37 305,48 325,64C344,79 377,117 423,176l788,1016C1240,1229 1255,1256 1255,1273C1255,1302 1235,1322 1195,1333l0,32l355,0l0,-32C1516,1328 1491,1320 1476,1307C1460,1294 1428,1255 1380,1192z"
   id="glyph1565" />
<glyph
   unicode="&amp;"
   horiz-adv-x="1584"
   d="M1530,940l0,-379l-32,0C1494,594 1484,611 1468,611C1453,611 1431,601 1402,582C1373,563 1347,541 1325,516C1286,473 1258,426 1243,375C1284,333 1320,303 1351,286C1381,268 1412,259 1444,259C1473,259 1491,275 1498,307l32,0l0,-315C1511,-4 1453,1 1354,7C1316,10 1269,27 1213,60C1156,93 1108,131 1067,174C932,42 771,-24 585,-24C440,-24 319,11 223,80C114,158 60,261 60,389C60,560 161,696 364,795C274,874 229,960 229,1053C229,1162 281,1248 385,1312C470,1363 567,1389 676,1389C799,1389 906,1358 998,1297C1088,1237 1133,1154 1133,1047C1133,988 1120,937 1094,896C1067,855 1020,810 952,762C1021,717 1075,654 1113,572C1177,683 1240,765 1301,820C1362,874 1439,914 1530,940M683,1185C632,1185 588,1173 550,1148C501,1117 477,1072 477,1013C477,964 497,923 536,891C575,858 624,842 683,842C734,842 779,854 817,879C866,911 890,955 890,1011C890,1062 871,1104 833,1136C795,1168 745,1184 683,1185M612,672C537,672 473,650 418,607C364,564 337,509 337,444C337,375 364,319 417,275C470,231 537,209 620,209C705,209 778,230 838,273C898,315 928,365 928,423C928,450 919,481 901,514C882,547 859,574 831,596C770,646 697,671 612,672z"
   id="glyph1567" />
<glyph
   unicode="'"
   horiz-adv-x="569"
   d="M403,803l0,-29l-236,0l0,29C192,810 208,817 215,826C221,834 224,851 224,877C224,888 223,898 221,909l-66,348C150,1290 145,1311 140,1318C134,1325 119,1331 96,1336l0,29l378,0l0,-29C450,1331 435,1325 430,1318C425,1311 420,1290 415,1257l-66,-348C347,899 346,888 346,875C346,850 349,834 356,826C362,817 378,810 403,803z"
   id="glyph1569" />
<glyph
   unicode="("
   horiz-adv-x="683"
   d="M556,1529l110,-91C590,1350 534,1267 499,1190C434,1052 402,883 402,682C402,519 422,381 463,266C503,151 571,38 666,-73l-110,-91C470,-103 395,-26 331,66C200,255 134,461 134,682C134,849 172,1009 248,1162C324,1315 427,1437 556,1529z"
   id="glyph1571" />
<glyph
   unicode=")"
   horiz-adv-x="683"
   d="M127,1529C212,1468 287,1391 351,1299C482,1110 548,904 548,682C548,515 510,355 435,203C359,51 256,-71 127,-164l-111,91C92,15 148,97 184,174C248,313 280,482 280,682C280,845 260,985 220,1100C179,1215 111,1327 16,1438z"
   id="glyph1573" />
<glyph
   unicode="*"
   horiz-adv-x="1033"
   d="M365,1502l303,0l0,-38C635,1456 613,1436 602,1403C591,1370 585,1303 583,1201C672,1232 732,1257 763,1277C793,1296 808,1320 808,1348C808,1351 808,1356 807,1363l36,12l94,-288l-36,-12C883,1104 858,1119 827,1119C788,1119 720,1104 624,1075C676,1006 715,960 740,937C765,913 789,901 810,901C819,901 832,904 848,911l22,-30l-245,-179l-22,31C619,753 627,770 627,785C627,820 590,891 517,996C444,891 407,820 407,785C407,770 415,753 431,733l-22,-31l-246,178l23,31C203,904 216,901 225,901C262,901 324,959 409,1074C310,1104 242,1119 205,1119C176,1119 151,1104 132,1075l-36,11l94,288l36,-11C225,1356 225,1351 225,1346C225,1320 242,1296 277,1274C311,1252 369,1228 450,1201C447,1305 441,1373 431,1405C420,1436 398,1456 365,1464z"
   id="glyph1575" />
<glyph
   unicode="+"
   horiz-adv-x="1570"
   d="M687,585l-357,0C311,585 297,580 287,571C277,562 269,545 263,521l-29,0l0,324l30,0C269,821 277,804 287,795C297,786 311,781 330,781l357,0l0,356C687,1156 682,1170 673,1180C664,1189 647,1197 623,1203l0,30l324,0l0,-29C923,1197 906,1189 897,1180C888,1171 883,1156 883,1137l0,-356l357,0C1259,781 1273,786 1283,795C1292,804 1300,821 1306,845l30,0l0,-324l-30,0C1300,545 1292,562 1283,571C1273,580 1259,585 1240,585l-357,0l0,-357C883,209 888,195 897,185C906,175 923,167 947,161l0,-29l-324,0l0,30C647,167 664,175 673,185C682,195 687,209 687,228z"
   id="glyph1577" />
<glyph
   unicode=","
   horiz-adv-x="628"
   d="M197,-250C252,-214 291,-179 315,-145C339,-111 356,-67 366,-13C334,-20 311,-24 296,-24C252,-24 217,-9 190,22C163,53 150,93 150,142C150,191 164,231 191,260C218,289 253,304 298,304C358,304 404,279 436,230C464,185 478,132 478,70C478,-77 400,-205 245,-314z"
   id="glyph1579" />
<glyph
   unicode="-"
   horiz-adv-x="455"
   d="M455,733l0,-346l-32,0C416,411 408,428 397,437C386,446 371,451 350,451l-246,0C84,451 69,446 58,437C47,427 38,410 32,387l-32,0l0,346l32,0C38,709 47,692 58,683C69,673 84,668 104,668l246,0C371,668 386,673 397,682C408,691 416,708 423,733z"
   id="glyph1581" />
<glyph
   unicode="."
   horiz-adv-x="628"
   d="M314,304C360,304 399,288 431,256C462,224 478,185 478,139C478,94 462,56 430,24C397,-8 359,-24 314,-24C269,-24 230,-8 198,25C166,57 150,96 150,141C150,186 166,224 198,256C229,287 268,303 314,304z"
   id="glyph1583" />
<glyph
   unicode="/"
   horiz-adv-x="1555"
   d="M1317,1192l-804,-1040C488,121 476,98 476,84C476,57 496,40 536,32l0,-32l-468,0l0,32C103,37 130,48 149,64C168,79 201,117 247,176l788,1016C1064,1229 1079,1256 1079,1273C1079,1302 1059,1322 1019,1333l0,32l468,0l0,-32C1453,1328 1428,1320 1413,1307C1397,1294 1365,1255 1317,1192z"
   id="glyph1585" />
<glyph
   unicode="0"
   horiz-adv-x="1461"
   d="M729,1389C908,1389 1057,1331 1176,1214C1309,1083 1376,902 1376,673C1376,601 1366,528 1346,454C1326,380 1299,316 1264,261C1203,165 1123,92 1024,42C936,-2 838,-24 730,-24C551,-24 402,35 284,152C227,209 183,273 152,344C107,449 84,562 84,683C84,846 121,986 196,1105C255,1199 335,1272 436,1323C520,1366 618,1388 729,1389M729,1157C623,1157 539,1110 476,1016C418,929 389,820 389,691C389,562 418,453 476,366C539,272 623,225 730,225C837,225 922,272 984,366C1042,453 1071,560 1071,685C1071,820 1042,931 984,1016C922,1109 837,1156 729,1157z"
   id="glyph1587" />
<glyph
   unicode="1"
   horiz-adv-x="1461"
   d="M441,872l0,363l32,0C480,1210 487,1194 494,1187C501,1180 511,1176 525,1176C532,1176 541,1177 553,1180l86,22l0,59C639,1281 634,1296 625,1307C616,1318 599,1326 575,1333l0,32l417,0l0,-32C968,1326 951,1318 942,1308C933,1297 928,1282 928,1261l0,-1156C928,84 933,69 942,58C951,47 968,39 992,32l0,-32l-417,0l0,32C599,39 616,47 625,58C634,69 639,84 639,105l0,864l-94,-23C523,941 507,933 498,923C488,913 480,896 473,872z"
   id="glyph1589" />
<glyph
   unicode="2"
   horiz-adv-x="1461"
   d="M439,246l835,0C1295,246 1310,251 1321,260C1332,269 1340,286 1347,310l32,0l0,-374l-32,0C1340,-40 1332,-23 1321,-14C1310,-5 1295,0 1274,0l-1063,0C177,0 154,-4 142,-12C130,-20 121,-37 115,-64l-32,0C82,-31 82,-9 82,0C82,85 92,156 111,211C150,323 224,418 331,496C386,536 477,585 602,642l169,77C850,756 908,794 943,833C978,872 995,918 995,971C995,1032 974,1078 933,1110C891,1141 830,1157 751,1157C654,1157 564,1133 481,1086C400,1041 360,994 360,946C360,935 365,914 376,883l-22,-23l-266,287l24,22C137,1157 156,1151 168,1151C179,1151 188,1153 196,1158C204,1163 220,1176 245,1198C392,1325 573,1389 788,1389C943,1389 1066,1351 1159,1275C1253,1198 1300,1095 1300,966C1300,839 1255,735 1165,652C1106,598 1026,549 926,504l-154,-69C756,427 720,412 663,389C594,361 545,338 517,321C489,303 463,278 439,246z"
   id="glyph1591" />
<glyph
   unicode="3"
   horiz-adv-x="1461"
   d="M1151,716C1302,659 1378,559 1378,414C1378,266 1313,154 1183,77C1069,10 926,-24 755,-24C573,-24 408,12 260,83C198,113 158,128 140,128C123,128 101,116 72,91l-29,15l160,369l30,-13C230,454 228,447 228,441C228,405 246,372 283,342C330,303 398,272 486,247C574,222 662,209 751,209C835,209 907,223 967,250C1043,285 1081,339 1081,413C1081,477 1054,525 1000,558C946,591 866,607 761,607C697,607 653,602 629,593C604,584 589,565 582,538l-32,0l0,335l32,0C590,843 605,824 627,815C648,806 691,801 754,801C853,801 928,818 981,853C1027,882 1050,925 1050,980C1050,1037 1024,1080 973,1111C922,1142 848,1157 753,1157C618,1157 500,1127 398,1068C349,1039 324,1008 324,976C324,963 328,948 337,931l-25,-20l-230,283l25,20C132,1203 150,1197 162,1197C175,1197 193,1205 216,1220C383,1333 570,1389 777,1389C921,1389 1042,1361 1141,1304C1198,1271 1242,1229 1274,1177C1307,1123 1323,1063 1323,996C1323,877 1266,783 1151,716z"
   id="glyph1593" />
<glyph
   unicode="4"
   horiz-adv-x="1461"
   d="M943,230l-719,0C185,230 160,226 148,219C135,211 126,193 121,165l-31,0l0,290l678,762C797,1251 812,1275 812,1290C812,1313 795,1328 761,1333l0,32l535,0l0,-32C1272,1326 1255,1318 1246,1307C1237,1296 1232,1281 1232,1261l0,-806l75,0C1328,455 1343,460 1354,469C1365,478 1373,495 1380,518l32,0l0,-353l-32,0C1373,189 1365,206 1354,216C1343,225 1328,230 1307,230l-75,0l0,-125C1232,84 1237,69 1246,58C1255,47 1272,39 1296,32l0,-32l-417,0l0,32C903,39 920,47 929,58C938,69 943,84 943,105M943,455l0,599l-527,-599z"
   id="glyph1595" />
<glyph
   unicode="5"
   horiz-adv-x="1461"
   d="M57,162l241,319l26,-18C319,446 317,431 317,419C317,385 344,351 398,317C510,245 633,209 768,209C869,209 948,230 1006,272C1069,318 1100,381 1100,461C1100,535 1070,594 1010,638C949,682 868,704 767,704C692,704 622,692 556,668C489,644 456,618 456,591C456,582 461,568 470,551l-24,-21l-352,354l21,24C120,907 125,907 128,907C160,907 176,927 176,968l0,289C176,1279 171,1296 162,1307C152,1318 135,1327 112,1333l0,32l1082,0C1215,1365 1230,1370 1241,1379C1251,1388 1260,1405 1267,1430l32,0l0,-361l-32,0C1260,1093 1251,1110 1241,1119C1230,1128 1215,1132 1194,1132l-779,0l0,-294C525,893 653,920 798,920C988,920 1137,876 1246,787C1347,705 1397,597 1397,462C1397,359 1367,267 1306,186C1202,46 1025,-24 775,-24C614,-24 475,5 358,62C329,76 283,102 218,140C190,157 165,165 142,165C129,165 110,157 83,142z"
   id="glyph1597" />
<glyph
   unicode="6"
   horiz-adv-x="1461"
   d="M1386,1286l-176,-327l-28,14C1185,990 1187,1003 1187,1012C1187,1039 1166,1065 1123,1092C1087,1115 1041,1133 986,1147C931,1161 877,1168 825,1168C714,1168 620,1139 541,1081C490,1043 452,997 427,944C402,890 387,820 380,733C447,793 516,836 585,863C654,889 733,902 823,902C968,902 1093,867 1197,798C1255,759 1301,709 1335,646C1367,585 1383,519 1383,446C1383,303 1323,189 1204,102C1089,18 941,-24 762,-24C569,-24 418,25 309,122C237,186 183,268 147,368C113,464 96,564 96,669C96,882 162,1054 293,1185C429,1321 605,1389 822,1389C898,1389 967,1382 1029,1368C1090,1354 1161,1329 1241,1294C1269,1281 1291,1275 1307,1275C1318,1275 1329,1279 1340,1288C1349,1295 1355,1300 1359,1303M769,674C668,674 585,649 521,599C468,558 441,504 441,438C441,372 468,318 521,276C584,226 668,201 771,201C874,201 958,226 1021,276C1074,318 1101,371 1101,435C1101,502 1074,557 1021,599C958,648 874,673 769,674z"
   id="glyph1599" />
<glyph
   unicode="7"
   horiz-adv-x="1461"
   d="M1041,1140l-851,0C169,1140 154,1136 143,1127C132,1118 124,1101 117,1077l-32,0l0,353l32,0C124,1405 132,1388 143,1379C154,1370 169,1365 190,1365l1080,0C1291,1365 1306,1370 1317,1379C1328,1388 1336,1405 1343,1430l32,0l0,-261l-614,-1012C737,118 725,92 725,81C725,61 744,45 781,32l0,-32l-489,0l0,32C321,40 345,53 364,70C383,87 405,116 430,157z"
   id="glyph1601" />
<glyph
   unicode="8"
   horiz-adv-x="1461"
   d="M1081,730C1284,677 1386,570 1386,409C1386,300 1343,206 1257,125C1152,26 976,-24 731,-24C564,-24 426,0 317,49C248,80 190,129 144,194C98,261 75,332 75,408C75,570 177,677 380,730C216,795 134,892 134,1022C134,1114 171,1192 246,1257C347,1345 509,1389 730,1389C885,1389 1014,1366 1118,1319C1179,1292 1229,1252 1268,1201C1307,1150 1327,1090 1327,1022C1327,892 1245,795 1081,730M728,1175C634,1175 560,1160 505,1131C450,1101 422,1061 422,1010C422,959 450,919 505,890C560,861 635,846 730,846C825,846 900,861 956,890C1011,919 1039,959 1039,1008C1039,1061 1012,1102 958,1131C903,1160 827,1175 728,1175M728,618C614,618 523,596 456,552C406,519 381,472 381,413C381,350 412,300 475,264C537,227 622,209 730,209C847,209 939,231 1005,275C1055,309 1080,354 1080,411C1080,476 1049,527 988,563C927,599 840,617 728,618z"
   id="glyph1603" />
<glyph
   unicode="9"
   horiz-adv-x="1461"
   d="M75,79l177,327l28,-14C276,375 274,362 274,353C274,326 295,300 338,273C373,251 419,233 475,219C531,204 584,197 635,197C746,197 841,226 920,284C971,323 1010,369 1035,422C1060,475 1075,545 1081,632C1014,572 946,529 877,503C808,476 728,463 637,463C492,463 368,497 265,566C206,605 160,656 127,719C95,780 79,846 79,918C79,1062 139,1177 258,1263C374,1347 521,1389 698,1389C891,1389 1043,1340 1152,1243C1225,1179 1279,1097 1314,997C1348,901 1365,801 1365,696C1365,483 1299,311 1168,180C1032,44 856,-24 639,-24C563,-24 495,-17 434,-3C373,10 302,35 220,71C192,84 170,90 155,90C144,90 132,86 121,77C112,70 106,65 102,62M690,1164C588,1164 505,1139 441,1089C388,1048 361,994 361,927C361,862 388,808 441,766C504,716 587,691 690,691C793,691 877,716 940,766C993,808 1020,861 1020,925C1020,992 993,1047 940,1089C878,1138 795,1163 690,1164z"
   id="glyph1605" />
<glyph
   unicode=":"
   horiz-adv-x="628"
   d="M314,304C360,304 399,288 431,256C462,224 478,185 478,139C478,94 462,56 430,24C397,-8 359,-24 314,-24C269,-24 230,-8 198,25C166,57 150,96 150,141C150,186 166,224 198,256C229,287 268,303 314,304M314,1144C360,1144 399,1128 431,1096C462,1064 478,1025 478,979C478,934 462,896 430,864C397,832 359,816 314,816C269,816 230,832 198,865C166,897 150,936 150,981C150,1026 166,1064 198,1096C229,1127 268,1143 314,1144z"
   id="glyph1607" />
<glyph
   unicode=";"
   horiz-adv-x="628"
   d="M197,-250C252,-214 291,-179 315,-145C339,-111 356,-67 366,-13C334,-20 311,-24 296,-24C252,-24 217,-9 190,22C163,53 150,93 150,142C150,191 164,231 191,260C218,289 253,304 298,304C358,304 404,279 436,230C464,185 478,132 478,70C478,-77 400,-205 245,-314M314,1144C360,1144 399,1128 431,1096C462,1064 478,1025 478,979C478,934 462,896 430,864C397,832 359,816 314,816C269,816 230,832 198,865C166,897 150,936 150,981C150,1026 166,1064 198,1096C229,1127 268,1143 314,1144z"
   id="glyph1609" />
<glyph
   unicode="&lt;"
   horiz-adv-x="1024"
   d="M955,1266l0,-289l-580,-294l580,-295l0,-288l-887,462l0,243z"
   id="glyph1611" />
<glyph
   unicode="="
   horiz-adv-x="1570"
   d="M234,753l0,324l30,0C269,1053 277,1036 287,1027C297,1018 311,1013 330,1013l910,0C1259,1013 1273,1018 1283,1027C1292,1036 1300,1053 1306,1077l30,0l0,-324l-30,0C1300,777 1292,794 1283,803C1273,812 1259,817 1240,817l-910,0C311,817 296,812 287,803C278,794 270,777 263,753M234,288l0,324l30,0C269,589 277,572 287,563C297,554 311,549 330,549l910,0C1259,549 1273,554 1283,563C1292,572 1300,588 1306,612l30,0l0,-324l-30,0C1300,313 1292,330 1283,339C1273,348 1259,353 1240,353l-910,0C311,353 296,348 287,339C278,330 270,313 263,288z"
   id="glyph1613" />
<glyph
   unicode="&gt;"
   horiz-adv-x="1024"
   d="M69,1266l887,-461l0,-243l-887,-462l0,288l580,295l-580,294z"
   id="glyph1615" />
<glyph
   unicode="?"
   horiz-adv-x="1000"
   d="M213,980l-172,252l26,18C87,1240 101,1235 109,1235C124,1235 153,1249 195,1276C258,1317 314,1347 363,1364C412,1381 464,1389 521,1389C613,1389 690,1367 752,1324C835,1266 877,1187 877,1086C877,1033 864,983 837,935C810,887 764,831 699,767C654,722 624,687 611,662C597,636 590,603 590,562C590,544 594,531 602,523C610,515 625,508 648,502l0,-32l-329,0l0,32C346,511 363,522 372,536C381,549 389,580 396,627C403,670 414,704 427,729C440,754 467,792 508,844C545,891 571,927 584,953C597,978 603,1005 603,1033C603,1076 589,1111 561,1138C532,1164 494,1177 447,1177C376,1177 316,1152 266,1101C243,1077 231,1054 231,1032C231,1025 234,1013 240,998M500,304C546,304 585,288 617,256C648,224 664,185 664,139C664,94 648,56 616,24C583,-8 545,-24 500,-24C455,-24 416,-8 384,25C352,57 336,96 336,141C336,186 352,224 384,256C415,287 454,303 500,304z"
   id="glyph1617" />
<glyph
   unicode="@"
   horiz-adv-x="1682"
   d="M1274,968l-114,-459C1158,502 1157,495 1157,488C1157,458 1178,443 1219,443C1256,443 1296,459 1337,492C1364,513 1385,548 1401,597C1417,646 1425,699 1425,757C1425,883 1381,988 1293,1071C1234,1127 1166,1170 1087,1199C1016,1225 945,1238 875,1238C766,1238 660,1209 556,1151C451,1092 372,1017 320,928C278,855 257,775 257,686C257,587 283,492 334,403C440,219 617,127 866,127C913,127 968,132 1030,142C1092,151 1142,163 1181,177C1197,182 1205,193 1205,208C1205,213 1205,218 1204,224l24,6l67,-234l-24,-6C1254,22 1236,38 1217,38C1209,38 1197,36 1182,32C1046,-3 932,-21 841,-21C644,-21 478,38 341,156C186,289 109,459 109,668C109,814 146,944 221,1058C301,1180 415,1270 564,1327C667,1366 773,1386 884,1386C1084,1386 1252,1326 1388,1206C1512,1097 1574,959 1574,792C1574,641 1526,521 1430,434C1366,376 1302,347 1237,347C1187,347 1147,356 1116,374C1085,391 1056,422 1029,466C990,437 942,413 885,396C828,379 769,370 709,370C627,370 561,390 510,430C454,475 426,536 426,613C426,700 457,778 520,847C561,893 613,929 676,955C738,981 803,994 872,994C965,994 1047,961 1116,896l22,72M842,867C775,867 718,849 670,812C614,769 584,713 581,644C579,601 593,565 624,538C654,511 694,497 745,497C832,497 903,517 959,558C1015,599 1043,647 1043,701C1043,754 1026,794 991,823C956,852 907,866 842,867z"
   id="glyph1619" />
<glyph
   unicode="A"
   horiz-adv-x="1666"
   d="M1123,348l-620,0l-92,-192C398,129 392,108 392,93C392,64 414,43 459,32l0,-32l-452,0l0,32C34,37 54,47 68,60C82,73 98,99 116,138l502,1049C634,1220 642,1247 642,1267C642,1298 623,1320 584,1333l0,32l484,0l0,-32C1029,1322 1009,1302 1009,1274C1009,1255 1015,1233 1028,1208l520,-1052C1570,111 1589,81 1606,65C1623,48 1645,37 1673,32l0,-32l-502,0l0,32C1215,39 1237,60 1237,94C1237,108 1230,129 1217,156M1037,535l-221,486l-224,-486z"
   id="glyph1621" />
<glyph
   unicode="B"
   horiz-adv-x="1651"
   d="M1339,715C1492,657 1569,550 1569,393C1569,268 1524,171 1435,100C1390,65 1337,39 1278,24C1218,8 1144,0 1056,0l-933,0l0,32C147,39 164,47 173,58C182,69 187,84 187,105l0,1155C187,1281 182,1296 173,1307C164,1318 147,1326 123,1333l0,32l924,0C1136,1365 1207,1358 1261,1345C1315,1332 1362,1309 1403,1277C1484,1214 1524,1122 1524,1003C1524,870 1462,774 1339,715M485,822l523,0C1087,822 1143,834 1174,857C1209,884 1227,925 1227,981C1227,1038 1210,1079 1177,1104C1144,1128 1087,1140 1008,1140l-523,0M485,225l506,0C1085,225 1153,238 1194,264C1241,294 1265,343 1265,411C1265,478 1241,527 1194,558C1153,584 1086,597 991,597l-506,0z"
   id="glyph1623" />
<glyph
   unicode="C"
   horiz-adv-x="1718"
   d="M1446,469l190,-285l-26,-18C1591,183 1576,192 1564,192C1552,192 1518,176 1463,144C1348,78 1252,34 1174,11C1095,-12 1002,-24 894,-24C679,-24 502,27 364,129C283,188 219,262 172,350C118,451 91,562 91,683C91,848 139,992 236,1114C381,1297 601,1389 895,1389C1003,1389 1096,1378 1173,1355C1250,1332 1347,1288 1463,1221C1518,1190 1552,1174 1564,1174C1576,1174 1591,1183 1610,1200l26,-18l-190,-285l-27,18C1420,926 1421,935 1421,942C1421,961 1413,980 1396,997C1379,1014 1350,1034 1307,1058C1189,1125 1064,1158 932,1158C776,1158 652,1119 559,1041C450,950 395,830 395,683C395,536 450,416 559,325C652,247 776,208 932,208C1064,208 1189,241 1307,308C1350,332 1379,353 1396,370C1413,387 1421,405 1421,424C1421,431 1420,440 1419,450z"
   id="glyph1625" />
<glyph
   unicode="D"
   horiz-adv-x="1717"
   d="M187,105l0,1155C187,1281 182,1296 173,1307C164,1318 147,1326 123,1333l0,32l761,0C1051,1365 1179,1346 1268,1308C1396,1253 1491,1161 1552,1034C1601,934 1625,817 1625,683C1625,448 1553,268 1408,145C1347,93 1276,56 1195,34C1114,11 1010,0 884,0l-761,0l0,32C147,39 164,47 173,58C182,69 187,84 187,105M485,225l374,0C978,225 1068,241 1128,274C1257,344 1321,480 1321,683C1321,830 1286,942 1217,1020C1178,1063 1132,1094 1077,1113C1022,1131 950,1140 859,1140l-374,0z"
   id="glyph1627" />
<glyph
   unicode="E"
   horiz-adv-x="1556"
   d="M485,599l0,-374l878,0C1383,225 1398,230 1409,239C1420,248 1428,265 1435,289l32,0l0,-353l-32,0C1428,-40 1420,-23 1409,-14C1398,-5 1383,0 1363,0l-1240,0l0,32C147,39 164,47 173,58C182,69 187,84 187,105l0,1155C187,1281 182,1296 173,1307C164,1318 147,1326 123,1333l0,32l1216,0C1359,1365 1374,1370 1385,1380C1396,1389 1404,1406 1411,1430l32,0l0,-353l-32,0C1404,1100 1396,1117 1385,1126C1374,1135 1359,1140 1339,1140l-854,0l0,-324l554,0C1059,816 1074,821 1085,830C1096,839 1104,856 1111,880l32,0l0,-345l-32,0C1104,558 1096,575 1085,585C1074,594 1059,599 1039,599z"
   id="glyph1629" />
<glyph
   unicode="F"
   horiz-adv-x="1490"
   d="M485,597l0,-492C485,84 490,69 500,58C509,47 526,38 549,32l0,-32l-426,0l0,32C147,39 164,47 173,58C182,69 187,84 187,105l0,1155C187,1281 182,1296 173,1307C164,1318 147,1326 123,1333l0,32l1208,0C1351,1365 1366,1370 1377,1379C1388,1388 1396,1405 1403,1430l32,0l0,-353l-32,0C1396,1101 1388,1118 1377,1127C1366,1136 1351,1140 1331,1140l-846,0l0,-326l553,0C1059,814 1074,819 1085,829C1096,838 1104,855 1111,879l32,0l0,-345l-32,0C1104,557 1096,574 1085,583C1074,592 1059,597 1038,597z"
   id="glyph1631" />
<glyph
   unicode="G"
   horiz-adv-x="1757"
   d="M1337,491l-337,0C979,491 964,486 954,477C943,468 935,451 928,427l-32,0l0,318l32,0C935,720 943,704 954,695C964,686 979,681 1000,681l648,0l0,-32C1624,642 1607,634 1598,623C1588,612 1583,597 1583,576l0,-280C1583,275 1588,260 1597,249C1606,238 1623,230 1648,223l0,-25C1389,50 1137,-24 894,-24C673,-24 493,28 354,133C179,265 91,448 91,683C91,902 169,1076 325,1205C473,1328 670,1389 915,1389C993,1389 1067,1382 1136,1368C1205,1353 1283,1329 1371,1295C1416,1277 1449,1268 1468,1268C1482,1268 1498,1276 1517,1291l28,-15l-160,-327l-29,15C1355,986 1352,1002 1347,1012C1342,1021 1330,1033 1311,1047C1270,1078 1211,1104 1132,1126C1053,1147 979,1158 909,1158C766,1158 648,1118 554,1038C448,947 395,828 395,679C395,535 447,419 550,330C645,249 769,208 924,208C999,208 1074,217 1147,234C1220,251 1284,275 1337,305z"
   id="glyph1633" />
<glyph
   unicode="H"
   horiz-adv-x="1757"
   d="M1272,596l-787,0l0,-492C485,84 490,69 500,58C509,47 526,38 549,32l0,-32l-426,0l0,32C147,39 164,47 173,58C182,69 187,84 187,104l0,1157C187,1281 182,1296 173,1307C164,1318 147,1326 123,1333l0,32l426,0l0,-32C525,1327 508,1319 499,1308C490,1297 485,1281 485,1261l0,-440l787,0l0,440C1272,1281 1267,1297 1258,1308C1249,1319 1232,1327 1208,1333l0,32l426,0l0,-32C1610,1326 1593,1318 1584,1307C1575,1296 1570,1281 1570,1261l0,-1157C1570,84 1575,69 1584,58C1593,47 1610,39 1634,32l0,-32l-426,0l0,32C1231,38 1248,47 1258,58C1267,69 1272,84 1272,104z"
   id="glyph1635" />
<glyph
   unicode="I"
   horiz-adv-x="671"
   d="M187,105l0,1156C187,1281 182,1296 173,1307C164,1318 147,1326 123,1333l0,32l426,0l0,-32C525,1327 508,1319 499,1308C490,1297 485,1281 485,1261l0,-1156C485,84 490,69 500,58C509,47 526,38 549,32l0,-32l-426,0l0,32C147,39 164,47 173,58C182,69 187,84 187,105z"
   id="glyph1637" />
<glyph
   unicode="J"
   horiz-adv-x="1238"
   d="M6,52l128,346l30,-11C163,379 163,372 163,367C163,340 180,314 214,291C250,268 298,248 359,232C419,216 477,208 532,208C621,208 686,228 727,269C748,290 762,314 769,343C776,371 780,414 780,471l0,789C780,1281 775,1296 766,1307C757,1318 740,1326 716,1333l0,32l426,0l0,-32C1118,1326 1101,1318 1092,1307C1083,1296 1078,1281 1078,1260l0,-804C1078,324 1060,229 1023,170C984,108 927,60 851,27C775,-7 686,-24 585,-24C527,-24 477,-20 434,-12C391,-5 322,13 225,42C165,59 122,68 97,68C75,68 55,59 36,40z"
   id="glyph1639" />
<glyph
   unicode="K"
   horiz-adv-x="1642"
   d="M690,638l-205,-167l0,-366C485,84 490,69 500,58C509,47 526,38 549,32l0,-32l-426,0l0,32C147,39 164,47 173,58C182,69 187,84 187,105l0,1156C187,1281 182,1296 173,1307C164,1318 147,1326 123,1333l0,32l426,0l0,-32C525,1327 508,1319 499,1308C490,1297 485,1281 485,1261l0,-478l562,459C1073,1263 1086,1280 1086,1293C1086,1312 1067,1326 1028,1333l0,32l558,0l0,-32C1563,1328 1546,1323 1536,1317C1526,1311 1497,1288 1449,1249l-77,-64l-464,-373l526,-633C1483,120 1518,83 1540,66C1561,49 1588,37 1621,32l0,-32l-533,0l0,32C1123,39 1141,52 1141,70C1141,79 1125,104 1093,144z"
   id="glyph1641" />
<glyph
   unicode="L"
   horiz-adv-x="1449"
   d="M485,225l839,0C1345,225 1360,230 1371,239C1382,248 1390,265 1397,289l32,0l0,-353l-32,0C1390,-40 1382,-23 1371,-14C1360,-5 1345,0 1324,0l-1201,0l0,32C147,39 164,47 173,58C182,69 187,84 187,105l0,1155C187,1281 182,1296 173,1307C164,1318 147,1326 123,1333l0,32l426,0l0,-32C525,1327 508,1319 499,1308C490,1297 485,1281 485,1260z"
   id="glyph1643" />
<glyph
   unicode="M"
   horiz-adv-x="1979"
   d="M963,19l-503,924l0,-838C460,84 465,69 474,58C483,47 500,39 524,32l0,-32l-401,0l0,32C147,39 164,47 173,58C182,69 187,84 187,105l0,1156C187,1281 182,1296 173,1307C164,1318 147,1326 123,1333l0,32l526,0l0,-32C618,1325 602,1307 602,1278C602,1265 607,1249 616,1232l372,-686l377,674C1382,1251 1390,1273 1390,1287C1390,1314 1373,1330 1340,1333l0,32l516,0l0,-32C1832,1326 1815,1318 1806,1307C1797,1296 1792,1281 1792,1261l0,-1156C1792,84 1797,69 1806,58C1815,47 1832,39 1856,32l0,-32l-426,0l0,32C1453,38 1470,47 1480,58C1489,69 1494,84 1494,105l0,838z"
   id="glyph1645" />
<glyph
   unicode="N"
   horiz-adv-x="1785"
   d="M460,935l0,-830C460,84 465,69 474,58C483,47 500,39 524,32l0,-32l-401,0l0,32C147,39 164,47 173,58C182,69 187,84 187,105l0,1156C187,1281 182,1296 173,1307C164,1318 147,1326 123,1333l0,32l464,0l0,-32C558,1326 544,1310 544,1287C544,1271 553,1253 572,1234l753,-783l0,810C1325,1281 1320,1296 1311,1307C1302,1318 1285,1326 1261,1333l0,32l401,0l0,-32C1638,1326 1621,1318 1612,1307C1603,1296 1598,1281 1598,1261l0,-1156C1598,84 1603,69 1612,58C1621,47 1638,39 1662,32l0,-32l-430,0l0,32C1260,38 1274,52 1274,75C1274,88 1258,112 1225,145z"
   id="glyph1647" />
<glyph
   unicode="O"
   horiz-adv-x="1752"
   d="M873,1389C1111,1389 1300,1325 1439,1196C1586,1061 1660,887 1660,674C1660,543 1625,421 1554,308C1416,87 1190,-24 875,-24C639,-24 451,40 312,169C237,238 181,320 142,416C108,501 91,590 91,683C91,820 126,945 196,1058C330,1275 556,1385 873,1389M874,1158C744,1158 636,1119 549,1042C446,951 395,831 395,683C395,535 446,415 549,324C636,247 745,208 876,208C1007,208 1116,247 1202,324C1253,370 1293,426 1320,493C1344,552 1356,614 1356,677C1356,832 1305,953 1202,1042C1115,1118 1005,1157 874,1158z"
   id="glyph1649" />
<glyph
   unicode="P"
   horiz-adv-x="1567"
   d="M485,554l0,-450C485,84 490,69 500,58C509,47 526,38 549,32l0,-32l-426,0l0,32C147,39 164,47 173,58C182,69 187,84 187,104l0,1156C187,1281 182,1296 173,1307C164,1318 147,1326 123,1333l0,32l852,0C1074,1365 1153,1358 1212,1345C1270,1332 1321,1309 1366,1276C1412,1242 1448,1197 1474,1142C1500,1085 1513,1024 1513,960C1513,868 1488,787 1439,718C1396,659 1340,617 1270,592C1199,567 1101,554 975,554M485,779l455,0C1031,779 1094,789 1131,808C1154,821 1173,841 1188,869C1202,896 1209,927 1209,960C1209,993 1202,1023 1188,1051C1173,1078 1154,1098 1131,1111C1095,1130 1031,1140 940,1140l-455,0z"
   id="glyph1651" />
<glyph
   unicode="Q"
   horiz-adv-x="1752"
   d="M1447,176l106,-110C1577,41 1593,25 1602,20C1610,14 1620,11 1631,11C1640,11 1656,15 1677,24l21,-24l-292,-266l-22,24C1397,-220 1404,-204 1404,-193C1404,-181 1385,-153 1348,-108l-118,144C1131,-4 1011,-24 870,-24C637,-24 451,40 312,169C237,238 181,320 142,416C108,501 91,590 91,683C91,820 126,944 197,1057C334,1278 561,1389 876,1389C1113,1389 1300,1325 1439,1196C1514,1127 1570,1045 1609,950C1643,865 1660,776 1660,683C1660,482 1589,313 1447,176M1250,375C1321,463 1356,566 1356,684C1356,831 1305,951 1202,1042C1116,1119 1007,1158 876,1158C744,1158 635,1119 549,1042C446,950 395,830 395,683C395,535 446,415 549,324C636,247 745,208 877,208C940,208 1001,219 1061,240C1054,249 1047,257 1042,264C971,355 888,411 792,434l0,28C840,499 895,518 956,518C1000,518 1044,507 1088,486C1131,465 1185,428 1250,375z"
   id="glyph1653" />
<glyph
   unicode="R"
   horiz-adv-x="1656"
   d="M485,557l0,-453C485,84 490,69 500,58C509,47 526,38 549,32l0,-32l-426,0l0,32C147,39 164,47 173,58C182,69 187,84 187,104l0,1156C187,1281 182,1296 173,1307C164,1318 147,1326 123,1333l0,32l854,0C1081,1365 1164,1359 1225,1347C1286,1335 1339,1314 1384,1284C1437,1249 1476,1202 1502,1143C1527,1086 1539,1024 1539,959C1539,736 1415,606 1168,568l265,-377C1480,125 1514,83 1536,64C1557,45 1584,34 1615,32l0,-32l-494,0l0,32C1155,37 1172,49 1172,68C1172,80 1156,109 1125,155l-276,402M485,782l460,0C1013,782 1061,784 1089,788C1117,792 1143,800 1166,813C1217,840 1242,890 1242,961C1242,1032 1217,1082 1166,1109C1142,1122 1117,1131 1090,1135C1063,1138 1014,1140 945,1140l-460,0z"
   id="glyph1655" />
<glyph
   unicode="S"
   horiz-adv-x="1475"
   d="M1393,1250l-163,-321l-28,16C1203,952 1203,957 1203,961C1203,984 1184,1008 1145,1034C1026,1117 887,1158 727,1158C656,1158 594,1149 540,1132C501,1119 469,1099 445,1072C420,1045 408,1016 408,985C408,934 439,899 501,880C533,871 602,861 707,850l157,-16C957,824 1033,810 1091,793C1148,776 1199,751 1244,720C1289,687 1325,644 1352,591C1378,538 1391,481 1391,420C1391,324 1360,239 1298,164C1242,96 1155,46 1037,13C949,-12 855,-24 754,-24C573,-24 395,19 219,106C182,123 159,132 152,132C143,132 130,125 111,110l-29,15l148,335l29,-14C259,440 259,436 259,433C259,403 273,375 302,350C345,311 412,278 503,250C594,222 680,208 761,208C850,208 925,223 988,253C1023,270 1050,292 1071,320C1092,347 1102,376 1102,406C1102,451 1078,484 1029,503C995,516 926,529 823,540l-154,16C566,567 493,577 450,587C407,596 365,612 322,633C261,663 214,708 179,768C148,822 132,884 132,954C132,1069 172,1165 251,1240C355,1339 511,1389 719,1389C806,1389 888,1380 963,1363C1038,1345 1132,1312 1245,1265C1284,1250 1307,1242 1316,1242C1330,1242 1346,1250 1365,1265z"
   id="glyph1657" />
<glyph
   unicode="T"
   horiz-adv-x="1381"
   d="M840,1140l0,-1035C840,84 845,69 854,58C863,47 880,39 904,32l0,-32l-426,0l0,32C502,39 519,47 528,58C537,69 542,84 542,105l0,1035l-424,0C98,1140 83,1136 72,1127C61,1118 53,1101 46,1077l-32,0l0,353l32,0C53,1405 62,1388 73,1379C83,1370 98,1365 118,1365l1145,0C1284,1365 1299,1370 1310,1379C1321,1388 1329,1405 1336,1430l32,0l0,-353l-32,0C1329,1101 1321,1118 1310,1127C1299,1136 1284,1140 1263,1140z"
   id="glyph1659" />
<glyph
   unicode="U"
   horiz-adv-x="1671"
   d="M1512,1260l0,-765C1512,350 1485,242 1432,170C1336,41 1138,-24 837,-24C620,-24 453,11 338,81C271,122 224,177 198,247C173,316 160,399 160,495l0,765C160,1281 155,1296 146,1307C137,1318 120,1326 96,1333l0,32l427,0l0,-32C499,1327 482,1319 473,1308C463,1297 458,1281 458,1260l0,-681C458,500 462,442 471,405C480,367 496,335 520,310C584,242 693,208 848,208C1003,208 1113,242 1177,310C1200,335 1216,367 1225,405C1234,442 1238,500 1238,579l0,681C1238,1281 1233,1296 1224,1307C1215,1318 1198,1326 1174,1333l0,32l402,0l0,-32C1552,1326 1535,1318 1526,1307C1517,1296 1512,1281 1512,1260z"
   id="glyph1661" />
<glyph
   unicode="V"
   horiz-adv-x="1577"
   d="M797,396l362,802C1174,1232 1182,1258 1182,1277C1182,1306 1160,1324 1116,1333l0,32l467,0l0,-32C1554,1329 1533,1321 1522,1308C1511,1295 1491,1259 1463,1198l-473,-1021C970,134 960,105 960,92C960,58 981,38 1023,32l0,-32l-470,0l0,32C595,38 616,58 616,93C616,106 606,134 586,177l-473,1021C85,1259 65,1295 54,1308C43,1321 22,1329 -7,1333l0,32l485,0l0,-32C434,1324 412,1306 412,1277C412,1258 420,1232 435,1198z"
   id="glyph1663" />
<glyph
   unicode="W"
   horiz-adv-x="2311"
   d="M1157,961l-312,-788C827,133 818,108 818,97C818,66 843,45 892,32l0,-32l-439,0l0,32C498,41 520,63 520,100C520,110 511,140 492,189l-391,1007C82,1246 64,1280 49,1298C33,1315 10,1327 -20,1333l0,32l474,0l0,-32C412,1324 391,1304 391,1274C391,1259 396,1237 407,1208l270,-722l292,726C982,1243 988,1264 988,1274C988,1305 966,1324 921,1333l0,32l496,0l0,-32C1372,1321 1349,1299 1349,1268C1349,1257 1355,1237 1366,1208l278,-725l269,713C1927,1231 1934,1258 1934,1275C1934,1304 1910,1324 1862,1333l0,32l469,0l0,-32C2298,1324 2275,1312 2262,1297C2249,1282 2233,1249 2212,1196l-391,-1007C1802,141 1793,109 1793,93C1793,60 1817,40 1864,32l0,-32l-445,0l0,32C1466,39 1489,62 1489,99C1489,112 1479,142 1458,189z"
   id="glyph1665" />
<glyph
   unicode="X"
   horiz-adv-x="1541"
   d="M943,711l413,-535C1401,117 1434,80 1454,64C1473,48 1500,37 1535,32l0,-32l-541,0l0,32C1034,40 1054,57 1054,84C1054,98 1042,121 1018,152l-263,338l-250,-327C478,128 464,103 464,88C464,55 486,36 531,32l0,-32l-524,0l0,32C38,35 62,44 79,58C96,72 130,111 181,176l412,520l-379,496C165,1257 132,1296 116,1309C99,1322 73,1330 37,1333l-1,32l548,0l0,-32C544,1322 524,1302 524,1272C524,1256 538,1229 567,1192l214,-275l217,275C1030,1233 1046,1261 1046,1278C1046,1307 1023,1326 977,1333l0,32l533,0l0,-32C1478,1330 1455,1323 1442,1312C1428,1301 1393,1261 1336,1192z"
   id="glyph1667" />
<glyph
   unicode="Y"
   horiz-adv-x="1460"
   d="M879,571l0,-466C879,84 884,69 894,58C903,47 920,39 944,32l0,-32l-429,0l0,32C539,39 556,47 566,58C576,69 581,84 581,105l0,466l-441,621C102,1245 72,1281 51,1300C29,1318 3,1329 -27,1333l0,32l539,0l0,-32C467,1326 445,1305 445,1271C445,1259 459,1233 486,1192l246,-366l253,366C1012,1231 1026,1258 1026,1272C1026,1287 1020,1301 1008,1312C996,1323 980,1330 959,1333l0,32l528,0l0,-32C1457,1329 1431,1318 1410,1300C1388,1281 1358,1245 1320,1192z"
   id="glyph1669" />
<glyph
   unicode="Z"
   horiz-adv-x="1462"
   d="M566,225l710,0C1296,225 1311,230 1322,239C1333,248 1341,265 1348,289l32,0l0,-353l-32,0C1341,-40 1333,-23 1322,-14C1311,-5 1296,0 1276,0l-1194,0l0,70l794,1070l-683,0C172,1140 157,1136 146,1127C135,1118 127,1101 120,1077l-32,0l0,353l32,0C127,1405 136,1388 147,1379C157,1370 172,1365 193,1365l1176,0l0,-57z"
   id="glyph1671" />
<glyph
   unicode="["
   horiz-adv-x="683"
   d="M134,1475l430,0C585,1475 601,1480 612,1489C623,1498 632,1515 639,1539l27,0l0,-268l-27,0C632,1295 624,1312 613,1322C602,1331 585,1336 564,1336l-147,0l0,-1306l134,0C579,30 599,34 611,43C622,52 632,69 639,95l27,0l0,-268l-27,0C632,-150 623,-133 612,-123C601,-114 585,-109 564,-109l-430,-1l0,25C157,-79 174,-71 184,-60C193,-50 198,-35 198,-16l0,1396C198,1399 193,1414 184,1425C174,1436 157,1444 134,1450z"
   id="glyph1673" />
<glyph
   unicode="\"
   horiz-adv-x="1555"
   d="M519,1192l788,-1016C1354,117 1387,79 1406,64C1425,48 1452,37 1486,32l0,-32l-468,0l0,32C1058,40 1078,57 1078,84C1078,98 1066,121 1042,152l-804,1040C190,1255 158,1294 143,1307C127,1320 102,1328 68,1333l0,32l467,0l0,-32C495,1322 475,1302 475,1272C475,1256 490,1229 519,1192z"
   id="glyph1675" />
<glyph
   unicode="]"
   horiz-adv-x="683"
   d="M548,1475l0,-25C525,1444 508,1436 499,1425C489,1414 484,1399 484,1380l0,-1396C484,-35 489,-50 499,-60C508,-70 525,-78 548,-85l0,-25l-430,1C97,-109 81,-114 70,-123C59,-133 50,-150 43,-173l-27,0l0,268l27,0C50,69 60,52 72,43C83,34 103,30 131,30l134,0l0,1306l-147,0C97,1336 81,1331 70,1322C59,1312 50,1295 43,1271l-27,0l0,268l27,0C50,1515 59,1498 70,1489C81,1480 97,1475 118,1475z"
   id="glyph1677" />
<glyph
   unicode="^"
   horiz-adv-x="1024"
   d="M293,723l-258,0l316,650l323,0l316,-650l-259,0l-219,453z"
   id="glyph1679" />
<glyph
   unicode="_"
   horiz-adv-x="1024"
   d="M0,-119l1024,0l0,-174l-1024,0z"
   id="glyph1681" />
<glyph
   unicode="`"
   horiz-adv-x="1024"
   d="M246,1533l304,0l0,-27C531,1504 522,1498 522,1487C522,1483 523,1478 526,1472l66,-163C598,1294 604,1285 611,1280C618,1275 629,1273 645,1273l0,-27l-217,0l0,27C430,1273 432,1273 433,1273C446,1273 453,1278 453,1289C453,1295 451,1300 447,1305l-142,174C292,1496 272,1505 246,1506z"
   id="glyph1683" />
<glyph
   unicode="a"
   horiz-adv-x="1421"
   d="M947,280l-515,0l-58,-122C360,129 353,106 353,89C353,57 374,37 417,28l0,-28l-412,0l0,28C30,32 49,40 62,51C74,62 88,85 105,118l409,828C529,977 537,1005 537,1028C537,1055 518,1077 481,1092l0,28l435,0l0,-28C879,1077 861,1055 861,1024C861,1002 869,975 886,943l424,-803C1333,96 1352,68 1365,55C1378,42 1399,32 1426,27l0,-27l-457,0l0,27C1012,34 1034,55 1034,88C1034,109 1026,134 1009,165M866,437l-183,359l-174,-359z"
   id="glyph1685" />
<glyph
   unicode="b"
   horiz-adv-x="1387"
   d="M1127,602C1182,577 1223,551 1249,526C1298,478 1322,413 1322,332C1322,223 1281,138 1198,79C1125,26 1024,0 895,0l-797,0l0,28C121,34 138,43 148,54C157,65 162,81 162,102l0,916C162,1039 157,1054 148,1065C139,1076 122,1085 98,1092l0,28l784,0C1019,1120 1120,1095 1184,1046C1252,994 1286,923 1286,832C1286,779 1274,735 1251,701C1227,667 1186,634 1127,602M430,700l407,0C901,700 946,708 973,725C1000,741 1013,769 1013,809C1013,848 1000,876 974,893C947,909 902,917 837,917l-407,0M430,203l417,0C982,203 1049,252 1049,350C1049,448 982,497 847,497l-417,0z"
   id="glyph1687" />
<glyph
   unicode="c"
   horiz-adv-x="1427"
   d="M1193,401l169,-246l-23,-17C1323,149 1310,155 1301,155C1290,155 1263,143 1222,118C1131,65 1050,28 980,7C910,-14 829,-24 738,-24C555,-24 406,20 291,107C226,157 174,220 135,295C94,376 73,465 73,560C73,691 111,807 187,908C306,1065 489,1144 736,1144C827,1144 909,1134 980,1113C1051,1092 1131,1055 1222,1002C1263,977 1290,965 1301,965C1310,965 1323,971 1339,982l23,-18l-169,-245l-22,16C1172,743 1172,748 1173,750C1174,756 1174,760 1174,763C1174,796 1129,833 1039,874C954,913 868,933 781,933C660,933 560,901 481,837C391,765 346,673 346,560C346,447 391,354 481,282C560,219 660,187 781,187C876,187 970,211 1064,258C1137,295 1174,328 1174,356C1174,357 1173,367 1171,384z"
   id="glyph1689" />
<glyph
   unicode="d"
   horiz-adv-x="1441"
   d="M162,102l0,916C162,1039 157,1054 148,1065C139,1076 122,1085 98,1092l0,28l657,0C892,1120 999,1103 1078,1069C1189,1021 1268,942 1317,831C1351,754 1368,663 1368,560C1368,369 1311,224 1197,125C1146,81 1085,49 1016,30C946,10 859,0 755,0l-657,0l0,28C121,34 138,43 148,54C157,65 162,81 162,102M430,203l286,0C847,203 943,233 1002,293C1064,356 1095,445 1095,560C1095,675 1064,764 1002,827C971,858 933,881 888,896C843,910 785,917 716,917l-286,0z"
   id="glyph1691" />
<glyph
   unicode="e"
   horiz-adv-x="1314"
   d="M430,476l0,-273l711,0C1162,203 1178,208 1189,217C1200,226 1208,243 1215,268l28,0l0,-332l-28,0C1209,-41 1200,-24 1189,-14C1178,-5 1162,0 1141,0l-1043,0l0,28C121,34 138,43 148,54C157,65 162,81 162,102l0,916C162,1039 157,1054 148,1065C139,1076 122,1085 98,1092l0,28l1012,0C1131,1120 1148,1125 1159,1134C1170,1143 1178,1160 1185,1184l27,0l0,-332l-27,0C1178,877 1170,894 1159,903C1148,912 1131,917 1110,917l-680,0l0,-246l422,0C873,671 889,676 900,685C911,694 920,711 927,735l27,0l0,-324l-27,0C920,435 912,452 901,462C890,471 873,476 852,476z"
   id="glyph1693" />
<glyph
   unicode="f"
   horiz-adv-x="1248"
   d="M430,476l0,-374C430,81 435,66 444,55C453,44 470,34 494,27l0,-27l-396,0l0,28C121,34 138,43 148,54C157,65 162,81 162,102l0,916C162,1039 157,1054 148,1065C139,1076 122,1085 98,1092l0,28l1004,0C1123,1120 1140,1125 1151,1134C1162,1143 1170,1160 1177,1184l27,0l0,-332l-27,0C1170,876 1162,893 1151,903C1140,912 1123,917 1102,917l-672,0l0,-246l422,0C873,671 889,676 900,685C911,694 920,711 927,735l27,0l0,-324l-27,0C920,435 912,452 901,462C890,471 873,476 852,476z"
   id="glyph1695" />
<glyph
   unicode="g"
   horiz-adv-x="1474"
   d="M1108,432l-255,0C832,432 816,427 805,418C794,409 785,392 778,368l-27,0l0,296l27,0C785,641 794,624 805,615C816,606 832,601 853,601l533,0l0,-29C1363,565 1346,556 1337,543C1327,530 1322,512 1322,489l0,-236C1322,232 1327,216 1337,205C1346,194 1363,185 1386,178l0,-23C1170,36 955,-24 740,-24C555,-24 405,20 290,107C228,155 178,214 140,285C95,369 73,459 73,554C73,686 114,803 195,906C322,1065 509,1144 757,1144C866,1144 990,1120 1129,1072C1184,1053 1217,1044 1226,1044C1237,1044 1251,1049 1266,1060l24,-13l-133,-282l-24,12C1133,780 1133,782 1133,783C1133,808 1108,833 1059,859C968,908 870,932 765,932C644,932 545,899 468,833C387,764 346,670 346,553C346,443 383,355 457,289C533,222 640,188 777,188C908,188 1018,212 1108,261z"
   id="glyph1697" />
<glyph
   unicode="h"
   horiz-adv-x="1486"
   d="M1055,487l-625,0l0,-385C430,81 435,66 444,55C453,44 470,34 494,27l0,-27l-396,0l0,28C121,34 138,43 148,54C157,65 162,81 162,102l0,916C162,1039 157,1054 148,1065C139,1076 122,1085 98,1092l0,28l396,0l0,-28C470,1085 453,1077 444,1066C435,1055 430,1039 430,1018l0,-328l625,0l0,328C1055,1039 1051,1054 1042,1065C1033,1076 1016,1085 991,1092l0,28l396,0l0,-28C1363,1085 1346,1077 1337,1066C1328,1055 1323,1039 1323,1018l0,-916C1323,81 1328,66 1337,55C1346,44 1363,34 1387,27l0,-27l-396,0l0,28C1014,34 1031,43 1041,54C1050,65 1055,81 1055,102z"
   id="glyph1699" />
<glyph
   unicode="i"
   horiz-adv-x="593"
   d="M430,1018l0,-916C430,81 435,66 444,55C453,44 470,34 494,27l0,-27l-396,0l0,28C121,34 138,43 148,54C157,65 162,81 162,102l0,916C162,1039 157,1054 148,1065C139,1076 122,1085 98,1092l0,28l396,0l0,-28C470,1085 453,1077 444,1066C435,1055 430,1039 430,1018z"
   id="glyph1701" />
<glyph
   unicode="j"
   horiz-adv-x="1035"
   d="M5,30l99,305l26,-9C130,302 137,283 152,269C173,248 211,230 265,213C318,196 369,188 416,188C487,188 540,204 575,236C609,268 626,317 626,384l0,634C626,1039 621,1054 612,1065C603,1076 586,1085 562,1092l0,28l396,0l0,-28C934,1085 917,1077 908,1066C899,1055 894,1039 894,1018l0,-639C894,256 873,168 832,115C798,71 748,37 681,13C614,-12 539,-24 454,-24C361,-24 245,-2 108,42C95,46 85,48 77,48C62,48 47,39 32,22z"
   id="glyph1703" />
<glyph
   unicode="k"
   horiz-adv-x="1403"
   d="M589,511l-159,-130l0,-279C430,81 435,66 444,55C453,44 470,34 494,27l0,-27l-396,0l0,28C121,34 138,43 148,54C157,65 162,81 162,102l0,916C162,1039 157,1054 148,1065C139,1076 122,1085 98,1092l0,28l396,0l0,-28C470,1085 453,1077 444,1066C435,1055 430,1039 430,1018l0,-367l421,336C882,1012 898,1033 898,1052C898,1072 879,1085 840,1092l0,28l504,0l0,-27C1319,1089 1298,1081 1281,1070C1264,1059 1221,1024 1154,965l-378,-301l416,-478C1245,124 1284,84 1307,65C1330,46 1356,34 1386,27l0,-27l-490,0l0,27C933,36 951,49 951,67C951,74 949,80 945,87C940,93 925,111 898,142z"
   id="glyph1705" />
<glyph
   unicode="l"
   horiz-adv-x="1176"
   d="M430,203l627,0C1078,203 1094,208 1105,217C1116,226 1125,243 1132,268l27,0l0,-332l-27,0C1125,-40 1117,-23 1106,-14C1095,-5 1078,0 1057,0l-959,0l0,28C121,34 138,43 148,54C157,65 162,81 162,102l0,916C162,1039 157,1054 148,1065C139,1076 122,1085 98,1092l0,28l396,0l0,-28C470,1085 453,1077 444,1066C435,1055 430,1039 430,1018z"
   id="glyph1707" />
<glyph
   unicode="m"
   horiz-adv-x="1677"
   d="M814,35l-408,701l0,-634C406,81 411,66 420,55C429,44 446,34 470,27l0,-27l-372,0l0,28C121,34 138,43 148,54C157,65 162,81 162,102l0,916C162,1039 157,1055 148,1066C139,1077 122,1085 98,1092l0,28l473,0l0,-28C540,1082 524,1063 524,1035C524,1008 535,974 558,935l279,-471l281,464C1150,981 1166,1018 1166,1040C1166,1067 1150,1085 1117,1092l0,28l461,0l0,-28C1554,1085 1537,1077 1528,1066C1519,1055 1514,1039 1514,1018l0,-916C1514,81 1519,65 1528,54C1537,43 1554,34 1578,27l0,-27l-396,0l0,28C1205,34 1222,43 1232,54C1241,65 1246,81 1246,102l0,634z"
   id="glyph1709" />
<glyph
   unicode="n"
   horiz-adv-x="1523"
   d="M406,738l0,-636C406,81 411,65 421,54C430,43 447,34 470,27l0,-27l-372,0l0,28C121,34 138,43 148,54C157,65 162,81 162,102l0,916C162,1039 157,1054 148,1065C139,1076 122,1085 98,1092l0,28l430,0l0,-28C499,1085 484,1072 484,1053C484,1037 495,1018 516,997l600,-596l0,617C1116,1039 1111,1055 1102,1066C1093,1077 1076,1085 1052,1092l0,28l372,0l0,-28C1400,1085 1383,1077 1374,1066C1365,1055 1360,1039 1360,1018l0,-916C1360,81 1365,66 1374,55C1383,44 1400,34 1424,27l0,-27l-401,0l0,27C1052,33 1067,45 1067,64C1067,73 1063,83 1055,93C1047,103 1029,123 1000,152z"
   id="glyph1711" />
<glyph
   unicode="o"
   horiz-adv-x="1460"
   d="M728,1144C906,1144 1054,1099 1173,1008C1315,899 1386,746 1386,551C1386,368 1315,221 1173,112C1056,21 908,-24 730,-24C552,-24 404,21 287,112C144,221 73,371 73,560C73,751 144,901 287,1008C405,1097 552,1142 728,1144M729,932C614,932 520,895 447,821C380,752 346,665 346,560C346,456 380,369 447,300C520,225 614,188 730,188C845,188 939,225 1012,300C1079,369 1113,454 1113,555C1113,665 1079,754 1012,821C939,894 844,931 729,932z"
   id="glyph1713" />
<glyph
   unicode="p"
   horiz-adv-x="1335"
   d="M430,460l0,-358C430,81 435,66 444,55C453,44 470,34 494,27l0,-27l-396,0l0,28C121,34 138,43 148,54C157,65 162,81 162,102l0,916C162,1039 157,1054 148,1065C139,1076 122,1085 98,1092l0,28l730,0C973,1120 1082,1098 1155,1055C1198,1030 1231,994 1255,947C1279,900 1291,848 1291,790C1291,679 1253,596 1177,542C1101,487 985,460 828,460M430,663l382,0C882,663 931,670 958,683C998,702 1018,738 1018,790C1018,842 998,878 958,897C931,910 883,917 812,917l-382,0z"
   id="glyph1715" />
<glyph
   unicode="q"
   horiz-adv-x="1480"
   d="M1215,147l100,-107C1342,12 1364,-2 1383,-1C1393,0 1405,6 1419,17l18,-20l-242,-222l-18,20C1189,-191 1195,-178 1195,-167C1195,-156 1180,-132 1149,-97l-113,130C947,-5 844,-24 729,-24C552,-24 404,21 287,112C144,222 73,371 73,560C73,749 144,898 287,1008C405,1099 553,1144 730,1144C908,1144 1056,1099 1173,1008C1316,898 1387,749 1387,560C1387,392 1330,254 1215,147M1037,329C1088,394 1114,471 1114,562C1114,665 1080,752 1013,821C941,895 847,932 730,932C614,932 520,895 447,821C380,752 346,665 346,560C346,456 380,369 447,300C520,225 614,188 729,188C780,188 831,197 882,215C808,307 735,362 664,379l0,17C707,427 751,442 794,442C866,442 947,404 1037,329z"
   id="glyph1717" />
<glyph
   unicode="r"
   horiz-adv-x="1406"
   d="M430,460l0,-358C430,81 435,66 444,55C453,44 470,34 494,27l0,-27l-396,0l0,28C121,34 138,43 148,54C157,65 162,81 162,102l0,916C162,1039 157,1054 148,1065C139,1076 122,1085 98,1092l0,28l734,0C927,1120 1000,1115 1050,1106C1100,1096 1145,1078 1184,1053C1265,1000 1305,914 1305,795C1305,704 1280,634 1231,583C1181,532 1101,495 990,472l212,-296C1241,121 1272,84 1295,65C1318,45 1344,32 1373,27l0,-27l-470,0l0,27C938,36 955,51 955,72C955,87 944,109 923,139l-224,321M430,663l404,0C895,663 941,670 970,683C1011,701 1032,737 1032,790C1032,837 1018,870 989,889C960,908 908,917 834,917l-404,0z"
   id="glyph1719" />
<glyph
   unicode="s"
   horiz-adv-x="1261"
   d="M1175,1019l-135,-261l-24,13C1016,793 1009,810 995,823C957,857 901,885 827,907C753,929 678,940 602,940C537,940 480,931 430,913C358,887 322,849 322,800C322,767 339,744 374,731C409,717 476,706 575,698l158,-12C871,675 976,649 1048,606C1088,582 1121,550 1147,510C1180,460 1196,404 1196,341C1196,227 1145,137 1042,71C944,8 811,-24 644,-24C475,-24 312,12 155,83C144,88 135,90 128,90C115,90 102,82 91,66l-25,10l115,274l25,-10C206,336 206,333 206,332C206,315 213,300 226,288C259,259 317,233 399,212C481,190 562,179 642,179C713,179 776,188 832,207C901,230 936,266 936,317C936,358 912,386 864,402C832,413 774,422 691,429l-157,13C449,449 385,457 340,468C295,479 256,494 223,515C180,542 147,578 123,624C99,670 87,720 87,775C87,898 140,991 245,1056C341,1115 460,1144 601,1144C678,1144 749,1136 816,1119C882,1102 961,1072 1053,1029C1080,1016 1099,1010 1110,1010C1121,1010 1134,1017 1151,1032z"
   id="glyph1721" />
<glyph
   unicode="t"
   horiz-adv-x="1165"
   d="M716,917l0,-815C716,81 721,66 730,55C739,44 756,34 780,27l0,-27l-396,0l0,28C407,34 424,43 434,54C443,65 448,81 448,102l0,815l-330,0C97,917 81,912 70,903C59,893 50,876 43,852l-27,0l0,332l28,0C50,1161 59,1144 70,1135C81,1125 97,1120 118,1120l928,0C1067,1120 1084,1125 1095,1134C1106,1143 1114,1160 1121,1184l27,0l0,-332l-27,0C1114,876 1106,893 1095,903C1084,912 1067,917 1046,917z"
   id="glyph1723" />
<glyph
   unicode="u"
   horiz-adv-x="1414"
   d="M1273,1018l0,-593C1273,290 1246,190 1193,127C1107,26 945,-24 707,-24C548,-24 419,0 321,49C250,84 202,135 176,200C152,260 140,335 140,425l0,593C140,1039 135,1054 126,1065C117,1076 100,1085 76,1092l0,28l397,0l0,-28C448,1085 431,1077 422,1066C413,1055 408,1039 408,1018l0,-539C408,416 414,368 425,335C436,302 455,274 482,253C537,210 616,188 719,188C822,188 901,210 956,253C983,274 1001,302 1012,335C1023,368 1028,416 1028,479l0,539C1028,1039 1024,1054 1015,1065C1006,1076 989,1085 964,1092l0,28l373,0l0,-28C1313,1085 1296,1077 1287,1066C1278,1055 1273,1039 1273,1018z"
   id="glyph1725" />
<glyph
   unicode="v"
   horiz-adv-x="1331"
   d="M674,354l271,593C961,981 969,1006 969,1023C969,1056 947,1079 904,1092l0,28l433,0l0,-28C1310,1083 1291,1073 1279,1060C1267,1047 1252,1021 1233,982l-392,-825C827,128 820,105 820,90C820,57 842,36 886,27l0,-27l-439,0l0,27C490,36 512,57 512,90C512,105 505,128 491,157l-392,825C80,1022 65,1048 54,1061C42,1073 22,1083 -5,1092l0,28l449,0l0,-28C401,1079 380,1056 380,1023C380,1008 388,983 405,947z"
   id="glyph1727" />
<glyph
   unicode="w"
   horiz-adv-x="1965"
   d="M980,778l-245,-609C723,139 717,114 717,95C717,58 739,35 783,27l0,-27l-417,0l0,27C406,37 426,60 426,95C426,113 420,138 408,169l-296,764C89,992 70,1031 55,1051C39,1070 15,1084 -16,1092l0,28l426,0l0,-28C369,1079 348,1058 348,1029C348,1015 355,991 368,957l210,-529l209,525C800,984 806,1008 806,1025C806,1058 784,1081 739,1092l0,28l498,0l0,-28C1194,1078 1172,1055 1172,1022C1172,1007 1178,986 1189,957l204,-529l204,534C1606,985 1610,1006 1610,1023C1610,1042 1605,1056 1596,1066C1587,1076 1570,1085 1545,1092l0,28l436,0l0,-28C1948,1080 1925,1065 1910,1047C1895,1028 1876,990 1853,933l-300,-764C1542,142 1537,118 1537,97C1537,58 1560,35 1605,27l0,-27l-434,0l0,27C1214,39 1235,63 1235,100C1235,109 1228,132 1213,169z"
   id="glyph1729" />
<glyph
   unicode="x"
   horiz-adv-x="1300"
   d="M799,580l331,-439C1159,103 1185,76 1210,59C1235,42 1263,31 1294,27l0,-27l-515,0l0,27C821,36 842,54 842,80C842,93 831,115 809,144l-182,239l-183,-239C426,121 417,100 417,83C417,59 439,40 482,27l0,-27l-477,0l0,27C37,34 62,45 80,59C98,72 123,100 155,141l330,427l-290,388C133,1039 78,1084 31,1092l0,28l512,0l0,-28C500,1080 478,1060 478,1032C478,1015 488,993 509,965l152,-203l140,190C828,989 842,1016 842,1033C842,1063 820,1083 776,1092l0,28l488,0l0,-28C1228,1085 1202,1074 1185,1061C1168,1047 1137,1012 1094,956z"
   id="glyph1731" />
<glyph
   unicode="y"
   horiz-adv-x="1226"
   d="M747,491l0,-389C747,81 752,66 761,55C770,44 787,34 811,27l0,-27l-396,0l0,27C439,34 456,43 465,54C474,65 479,81 479,102l0,389l-332,457C110,999 80,1035 58,1054C35,1073 9,1085 -22,1092l0,28l504,0l0,-28C439,1081 417,1060 417,1031C417,1016 433,987 464,943l163,-226l159,226C817,988 833,1017 833,1032C833,1060 812,1080 769,1092l-1,28l480,0l0,-28C1217,1085 1191,1073 1169,1054C1146,1035 1116,999 1079,948z"
   id="glyph1733" />
<glyph
   unicode="z"
   horiz-adv-x="1247"
   d="M511,203l568,0C1100,203 1116,208 1127,218C1138,227 1147,244 1154,268l27,0l0,-332l-28,0C1147,-41 1139,-24 1128,-14C1117,-5 1100,0 1079,0l-1003,0l0,60l653,857l-543,0C165,917 149,912 138,903C127,894 118,877 111,852l-27,0l0,332l27,0C118,1160 127,1143 138,1134C149,1125 165,1120 186,1120l985,0l0,-49z"
   id="glyph1735" />
<glyph
   unicode="{"
   horiz-adv-x="683"
   d="M669,-173l-27,0C635,-148 626,-131 615,-122C603,-113 583,-109 556,-109l-232,0C283,-109 245,-95 208,-67C164,-34 142,4 143,45l0,373C142,493 138,540 131,561C124,581 107,591 81,591l-62,0C4,591 -7,586 -14,577C-22,568 -29,551 -34,526l-24,0l0,313l24,0C-29,814 -22,798 -15,789C-8,780 4,775 19,775l62,0C107,775 124,785 131,805C138,825 142,872 143,947l0,374C143,1360 162,1395 200,1427C237,1459 279,1475 324,1475l232,0C584,1475 604,1479 616,1488C627,1497 636,1514 642,1539l27,0l0,-279l-27,0C635,1286 626,1303 615,1312C604,1321 584,1325 556,1325l-82,0C401,1318 365,1270 366,1181l0,-355C366,796 360,771 349,751C337,731 315,708 283,683C315,658 337,635 349,615C360,595 366,570 366,539l0,-354C365,96 401,48 474,41l82,0C584,41 604,45 615,54C626,63 635,80 642,106l27,0z"
   id="glyph1737" />
<glyph
   unicode="|"
   horiz-adv-x="1024"
   d="M366,1365l292,0l0,-1706l-292,0z"
   id="glyph1739" />
<glyph
   unicode="}"
   horiz-adv-x="683"
   d="M14,-173l0,279l27,0C48,80 57,63 68,54C79,45 99,41 127,41l82,0C283,48 319,96 318,185l0,354C318,570 324,595 336,615C347,635 369,658 401,683C369,708 347,731 336,751C324,771 318,796 318,826l0,355C319,1270 283,1318 209,1325l-82,0C100,1325 80,1321 69,1312C57,1303 48,1286 41,1260l-27,0l0,279l27,0C48,1514 57,1497 68,1488C79,1479 99,1475 127,1475l233,0C401,1475 439,1461 476,1433C519,1400 541,1363 541,1321l0,-374C542,872 547,825 554,805C561,785 577,775 602,775l62,0C679,775 691,780 698,789C705,798 712,814 717,839l24,0l0,-313l-24,0C712,551 705,569 698,578C691,587 679,591 664,591l-62,0C577,591 561,581 554,561C547,540 542,493 541,418l0,-373C541,7 522,-28 485,-60C447,-93 405,-109 360,-109l-233,0C100,-109 80,-113 69,-122C57,-131 48,-148 41,-173z"
   id="glyph1741" />
<glyph
   unicode="~"
   horiz-adv-x="1365"
   d="M332,484l-142,118C217,666 246,719 277,760C336,837 407,876 490,876C538,876 613,853 715,808C800,771 857,752 887,752C939,752 989,795 1037,881l142,-118C1147,690 1116,635 1086,598C1027,525 958,488 877,488C851,488 825,492 800,501C774,510 707,537 598,583C549,604 510,614 481,614C452,614 427,604 405,585C383,566 359,532 332,484z"
   id="glyph1743" />
<glyph
   unicode="Ä"
   horiz-adv-x="1666"
   d="M1123,348l-620,0l-92,-192C398,129 392,108 392,93C392,64 414,43 459,32l0,-32l-452,0l0,32C34,37 55,46 68,59C81,72 97,98 116,138l502,1049C634,1220 642,1247 642,1267C642,1298 623,1320 584,1333l0,32l484,0l0,-32C1029,1322 1009,1302 1009,1274C1009,1255 1015,1233 1028,1208l520,-1052C1570,111 1589,81 1606,65C1623,48 1645,37 1673,32l0,-32l-502,0l0,32C1215,39 1237,60 1237,94C1237,108 1230,129 1217,156M1037,535l-221,486l-224,-486M625,1742C664,1742 695,1729 720,1704C745,1678 758,1646 758,1608C758,1574 745,1544 720,1519C695,1494 664,1481 627,1481C592,1481 561,1494 535,1519C510,1544 497,1574 497,1611C497,1647 509,1678 534,1703C559,1728 589,1741 625,1742M1024,1742C1061,1742 1092,1729 1117,1704C1142,1678 1155,1648 1155,1614C1155,1576 1142,1544 1117,1519C1092,1494 1060,1481 1021,1481C986,1481 957,1494 932,1520C907,1545 894,1576 894,1612C894,1648 907,1679 932,1704C957,1729 987,1741 1024,1742z"
   id="glyph1745" />
<glyph
   unicode="Å"
   horiz-adv-x="1666"
   d="M1123,348l-620,0l-92,-192C398,129 392,108 392,93C392,64 414,43 459,32l0,-32l-452,0l0,32C34,37 54,47 68,60C82,73 98,99 116,138l502,1049C634,1220 642,1247 642,1267C642,1298 623,1320 584,1333l0,32l484,0l0,-32C1029,1322 1009,1302 1009,1274C1009,1255 1015,1233 1028,1208l520,-1052C1570,111 1589,81 1606,65C1623,48 1645,37 1673,32l0,-32l-502,0l0,32C1215,39 1237,60 1237,94C1237,108 1230,129 1217,156M1037,535l-221,486l-224,-486M826,1813C891,1813 945,1795 989,1758C1034,1721 1056,1676 1056,1624C1056,1571 1034,1526 989,1491C943,1455 889,1437 827,1437C764,1437 710,1455 665,1492C620,1529 598,1574 598,1626C598,1679 620,1723 664,1759C707,1794 761,1812 826,1813M827,1709C798,1709 774,1701 755,1686C736,1670 726,1650 726,1625C726,1602 736,1582 756,1566C775,1549 799,1541 827,1541C854,1541 878,1549 898,1566C918,1582 928,1601 928,1624C928,1649 919,1669 900,1685C881,1701 857,1709 827,1709z"
   id="glyph1747" />
<glyph
   unicode="Ç"
   horiz-adv-x="1718"
   d="M1446,469l190,-285l-26,-18C1591,183 1576,192 1564,192C1552,192 1518,176 1463,144C1348,78 1252,34 1174,11C1095,-12 1002,-24 894,-24C679,-24 502,27 364,129C283,188 219,262 172,350C118,451 91,562 91,683C91,848 139,992 236,1114C381,1297 601,1389 895,1389C1003,1389 1096,1378 1173,1355C1250,1332 1347,1288 1463,1221C1518,1190 1552,1174 1564,1174C1576,1174 1591,1183 1610,1200l26,-18l-190,-285l-27,18C1420,926 1421,935 1421,942C1421,961 1413,980 1396,997C1379,1014 1350,1034 1307,1058C1189,1125 1064,1158 932,1158C776,1158 652,1119 559,1041C450,950 395,830 395,683C395,536 450,416 559,325C652,247 776,208 932,208C1064,208 1189,241 1307,308C1350,332 1379,353 1396,370C1413,387 1421,405 1421,424C1421,431 1420,440 1419,450M712,-246l57,110C778,-119 784,-110 788,-107C791,-104 799,-103 810,-103C901,-103 972,-118 1022,-149C1072,-180 1097,-223 1097,-279C1097,-332 1076,-376 1033,-411C988,-448 922,-466 837,-466C749,-466 676,-456 617,-435l25,52C682,-394 719,-399 754,-399C800,-399 837,-391 864,-374C891,-357 905,-335 905,-306C905,-285 897,-266 882,-251C867,-236 848,-228 827,-228C795,-228 767,-241 744,-267z"
   id="glyph1749" />
<glyph
   unicode="É"
   horiz-adv-x="1556"
   d="M485,599l0,-374l878,0C1383,225 1398,230 1409,239C1420,248 1428,265 1435,289l32,0l0,-353l-32,0C1428,-40 1420,-23 1409,-14C1398,-5 1383,0 1363,0l-1240,0l0,32C147,39 164,47 173,58C182,69 187,84 187,105l0,1155C187,1281 182,1296 173,1307C164,1318 147,1326 123,1333l0,32l1216,0C1359,1365 1374,1370 1385,1380C1396,1389 1404,1406 1411,1430l32,0l0,-353l-32,0C1404,1100 1396,1117 1385,1126C1374,1135 1359,1140 1339,1140l-854,0l0,-324l554,0C1059,816 1074,821 1085,830C1096,839 1104,856 1111,880l32,0l0,-345l-32,0C1104,558 1096,575 1085,585C1074,594 1059,599 1039,599M1070,1765l0,-27C1044,1737 1024,1728 1011,1710l-142,-173C865,1532 863,1527 863,1521C863,1510 870,1505 884,1505C885,1505 886,1505 888,1505l0,-27l-217,0l0,27C687,1505 698,1507 705,1512C712,1517 718,1526 724,1541l66,163C793,1710 794,1715 794,1719C794,1730 785,1736 766,1738l0,27z"
   id="glyph1751" />
<glyph
   unicode="Ñ"
   horiz-adv-x="1785"
   d="M460,935l0,-830C460,84 465,69 474,58C483,47 500,39 524,32l0,-32l-401,0l0,32C147,39 164,47 173,58C182,69 187,84 187,105l0,1156C187,1281 182,1296 173,1307C164,1318 147,1326 123,1333l0,32l464,0l0,-32C558,1326 544,1310 544,1287C544,1271 553,1253 572,1234l753,-783l0,810C1325,1281 1320,1296 1311,1307C1302,1318 1285,1326 1261,1333l0,32l401,0l0,-32C1638,1326 1621,1318 1612,1307C1603,1296 1598,1281 1598,1261l0,-1156C1598,84 1603,69 1612,58C1621,47 1638,39 1662,32l0,-32l-430,0l0,32C1260,38 1274,52 1274,75C1274,88 1258,112 1225,145M1115,1749l145,-134l-16,-20C1225,1601 1212,1604 1207,1604C1198,1604 1190,1598 1181,1587C1136,1526 1089,1496 1039,1496C1012,1496 984,1502 954,1513l-148,57C791,1575 777,1578 762,1578C749,1578 736,1573 723,1562C710,1551 704,1539 704,1528C704,1520 709,1510 719,1497l-18,-14l-149,138l14,17C582,1633 593,1630 600,1630C614,1630 627,1638 638,1653C679,1706 729,1733 790,1733C811,1733 832,1729 855,1720l149,-59C1021,1654 1038,1651 1055,1651C1068,1651 1081,1656 1093,1667C1105,1678 1111,1689 1111,1701C1111,1710 1105,1721 1094,1734z"
   id="glyph1753" />
<glyph
   unicode="Ö"
   horiz-adv-x="1752"
   d="M873,1389C1111,1389 1300,1325 1439,1196C1586,1061 1660,887 1660,674C1660,543 1625,421 1554,308C1416,87 1190,-24 875,-24C639,-24 451,40 312,169C237,238 181,320 142,416C108,501 91,590 91,683C91,820 126,945 196,1058C330,1275 556,1385 873,1389M874,1158C744,1158 636,1119 549,1042C446,951 395,831 395,683C395,535 446,415 549,324C636,247 745,208 876,208C1007,208 1116,247 1202,324C1253,370 1293,426 1320,493C1344,552 1356,614 1356,677C1356,832 1305,953 1202,1042C1115,1118 1005,1157 874,1158M675,1742C713,1742 745,1729 770,1704C795,1678 808,1646 808,1608C808,1574 795,1544 770,1519C745,1494 714,1481 677,1481C642,1481 611,1494 585,1519C560,1544 547,1574 547,1611C547,1647 559,1678 584,1703C609,1728 639,1741 675,1742M1074,1742C1111,1742 1142,1729 1167,1704C1192,1678 1205,1648 1205,1614C1205,1576 1192,1544 1167,1519C1142,1494 1110,1481 1071,1481C1036,1481 1007,1494 982,1520C957,1545 944,1576 944,1612C944,1647 957,1678 982,1703C1007,1728 1037,1741 1074,1742z"
   id="glyph1755" />
<glyph
   unicode="Ü"
   horiz-adv-x="1671"
   d="M1512,1260l0,-765C1512,350 1485,242 1432,170C1336,41 1138,-24 837,-24C620,-24 453,11 338,81C271,122 224,177 198,247C173,316 160,399 160,495l0,765C160,1281 155,1296 146,1307C137,1318 120,1326 96,1333l0,32l427,0l0,-32C499,1327 482,1319 473,1308C463,1297 458,1281 458,1260l0,-681C458,500 462,442 471,405C480,367 496,335 520,310C584,242 693,208 848,208C1003,208 1113,242 1177,310C1200,335 1216,367 1225,405C1234,442 1238,500 1238,579l0,681C1238,1281 1233,1296 1224,1307C1215,1318 1198,1326 1174,1333l0,32l402,0l0,-32C1552,1326 1535,1318 1526,1307C1517,1296 1512,1281 1512,1260M642,1742C681,1742 712,1729 737,1704C762,1678 775,1646 775,1608C775,1574 762,1544 737,1519C712,1494 681,1481 644,1481C609,1481 578,1494 552,1519C527,1544 514,1574 514,1611C514,1647 526,1678 551,1703C576,1728 606,1741 642,1742M1041,1742C1078,1742 1109,1729 1134,1704C1159,1678 1172,1648 1172,1614C1172,1576 1159,1544 1134,1519C1109,1494 1077,1481 1038,1481C1003,1481 974,1494 949,1520C924,1545 911,1576 911,1612C911,1647 924,1678 949,1703C974,1728 1004,1741 1041,1742z"
   id="glyph1757" />
<glyph
   unicode="á"
   horiz-adv-x="1421"
   d="M947,280l-515,0l-58,-122C360,129 353,106 353,89C353,57 374,37 417,28l0,-28l-412,0l0,28C30,32 49,40 62,51C74,62 88,85 105,118l409,828C529,977 537,1005 537,1028C537,1055 518,1077 481,1092l0,28l435,0l0,-28C879,1077 861,1055 861,1024C861,1002 869,975 886,943l424,-803C1333,96 1352,68 1365,55C1378,42 1399,32 1426,27l0,-27l-457,0l0,27C1012,34 1034,55 1034,88C1034,109 1026,134 1009,165M866,437l-183,359l-174,-359M980,1533l0,-27C954,1505 934,1496 921,1479l-142,-174C775,1300 773,1295 773,1289C773,1278 780,1273 794,1273C795,1273 796,1273 798,1273l0,-27l-217,0l0,27C597,1273 608,1275 615,1280C622,1285 628,1294 634,1309l66,163C703,1478 704,1483 704,1487C704,1498 695,1504 676,1506l0,27z"
   id="glyph1759" />
<glyph
   unicode="à"
   horiz-adv-x="1421"
   d="M947,280l-515,0l-58,-122C360,129 353,106 353,89C353,57 374,37 417,28l0,-28l-412,0l0,28C30,32 49,40 62,51C74,62 88,85 105,118l409,828C529,977 537,1005 537,1028C537,1055 518,1077 481,1092l0,28l435,0l0,-28C879,1077 861,1055 861,1024C861,1002 869,975 886,943l424,-803C1333,96 1352,68 1365,55C1378,42 1399,32 1426,27l0,-27l-457,0l0,27C1012,34 1034,55 1034,88C1034,109 1026,134 1009,165M866,437l-183,359l-174,-359M413,1533l304,0l0,-27C698,1504 689,1498 689,1487C689,1483 690,1478 693,1472l66,-163C765,1294 771,1285 778,1280C785,1275 796,1273 812,1273l0,-27l-217,0l0,27C597,1273 599,1273 600,1273C613,1273 620,1278 620,1289C620,1295 618,1300 614,1305l-142,174C459,1496 439,1505 413,1506z"
   id="glyph1761" />
<glyph
   unicode="â"
   horiz-adv-x="1421"
   d="M947,280l-515,0l-58,-122C360,129 353,106 353,89C353,57 374,37 417,28l0,-28l-412,0l0,28C30,32 49,40 62,51C74,62 88,85 105,118l409,828C529,977 537,1005 537,1028C537,1055 518,1077 481,1092l0,28l435,0l0,-28C879,1077 861,1055 861,1024C861,1002 869,975 886,943l424,-803C1333,96 1352,68 1365,55C1378,42 1399,32 1426,27l0,-27l-457,0l0,27C1012,34 1034,55 1034,88C1034,109 1026,134 1009,165M866,437l-183,359l-174,-359M609,1246l-250,0l0,27C375,1274 385,1276 390,1279C395,1282 407,1294 428,1315l134,149C569,1472 573,1480 573,1489C573,1500 562,1506 540,1506l0,27l316,0l0,-27C836,1504 826,1498 826,1488C826,1481 831,1471 842,1460l150,-167C1003,1280 1018,1274 1037,1273l0,-27l-287,0l0,27C771,1275 781,1280 781,1288C781,1291 776,1298 765,1311l-84,103l-92,-106C583,1302 580,1296 580,1290C580,1280 590,1274 609,1273z"
   id="glyph1763" />
<glyph
   unicode="ä"
   horiz-adv-x="1421"
   d="M947,280l-515,0l-58,-122C360,129 353,106 353,89C353,57 374,37 417,28l0,-28l-412,0l0,28C30,32 49,40 62,51C74,62 88,85 105,118l409,828C529,977 537,1005 537,1028C537,1055 518,1077 481,1092l0,28l435,0l0,-28C879,1077 861,1055 861,1024C861,1002 869,975 886,943l424,-803C1333,96 1352,68 1365,55C1378,42 1399,32 1426,27l0,-27l-457,0l0,27C1012,34 1034,55 1034,88C1034,109 1026,134 1009,165M866,437l-183,359l-174,-359M501,1510C539,1510 571,1497 596,1472C621,1446 634,1414 634,1377C634,1342 621,1312 596,1287C571,1262 540,1249 503,1249C468,1249 437,1262 411,1287C386,1312 373,1342 373,1379C373,1415 385,1446 410,1471C435,1496 465,1509 501,1510M900,1510C937,1510 968,1497 993,1472C1018,1446 1031,1416 1031,1382C1031,1344 1018,1312 993,1287C968,1262 936,1249 898,1249C863,1249 833,1262 808,1288C783,1313 770,1344 770,1380C770,1415 783,1446 808,1471C833,1496 863,1509 900,1510z"
   id="glyph1765" />
<glyph
   unicode="ã"
   horiz-adv-x="1421"
   d="M947,280l-515,0l-58,-122C360,129 353,106 353,89C353,57 374,37 417,28l0,-28l-412,0l0,28C30,32 49,40 62,51C74,62 88,85 105,118l409,828C529,977 537,1005 537,1028C537,1055 518,1077 481,1092l0,28l435,0l0,-28C879,1077 861,1055 861,1024C861,1002 869,975 886,943l424,-803C1333,96 1352,68 1365,55C1378,42 1399,32 1426,27l0,-27l-457,0l0,27C1012,34 1034,55 1034,88C1034,109 1026,134 1009,165M866,437l-183,359l-174,-359M918,1517l145,-134l-16,-20C1028,1369 1015,1372 1010,1372C1001,1372 993,1366 984,1355C939,1294 892,1263 842,1263C816,1263 788,1269 757,1281l-148,57C596,1343 581,1345 565,1345C552,1345 539,1340 526,1329C513,1318 507,1306 507,1295C507,1287 512,1277 522,1265l-18,-15l-149,139l14,17C384,1401 396,1398 403,1398C417,1398 430,1405 441,1420C482,1473 533,1500 593,1500C615,1500 637,1496 658,1487l149,-58C826,1422 843,1418 858,1418C871,1418 884,1423 896,1434C908,1445 914,1456 914,1468C914,1477 908,1488 897,1501z"
   id="glyph1767" />
<glyph
   unicode="å"
   horiz-adv-x="1421"
   d="M947,280l-515,0l-58,-122C360,129 353,106 353,89C353,57 374,37 417,28l0,-28l-412,0l0,28C30,32 49,40 62,51C74,62 88,85 105,118l409,828C529,977 537,1005 537,1028C537,1055 518,1077 481,1092l0,28l435,0l0,-28C879,1077 861,1055 861,1024C861,1002 869,975 886,943l424,-803C1333,96 1352,68 1365,55C1378,42 1399,32 1426,27l0,-27l-457,0l0,27C1012,34 1034,55 1034,88C1034,109 1026,134 1009,165M866,437l-183,359l-174,-359M701,1581C766,1581 820,1563 864,1526C909,1489 931,1444 931,1392C931,1339 909,1294 864,1259C818,1223 764,1205 702,1205C639,1205 585,1223 540,1260C495,1297 473,1342 473,1394C473,1447 495,1491 539,1527C582,1562 636,1580 701,1581M702,1477C673,1477 649,1469 630,1454C611,1438 601,1418 601,1393C601,1370 611,1350 631,1334C650,1317 674,1309 702,1309C729,1309 753,1317 773,1334C793,1350 803,1369 803,1392C803,1417 794,1437 775,1453C756,1469 732,1477 702,1477z"
   id="glyph1769" />
<glyph
   unicode="ç"
   horiz-adv-x="1427"
   d="M1193,401l169,-246l-23,-17C1323,149 1310,155 1301,155C1290,155 1263,143 1222,118C1131,65 1050,28 980,7C910,-14 829,-24 738,-24C555,-24 406,20 291,107C226,157 174,220 135,295C94,376 73,465 73,560C73,691 111,807 187,908C306,1065 489,1144 736,1144C827,1144 909,1134 980,1113C1051,1092 1131,1055 1222,1002C1263,977 1290,965 1301,965C1310,965 1323,971 1339,982l23,-18l-169,-245l-22,16C1172,743 1172,748 1173,750C1174,756 1174,760 1174,763C1174,796 1129,833 1039,874C954,913 868,933 781,933C660,933 560,901 481,837C391,765 346,673 346,560C346,447 391,354 481,282C560,219 660,187 781,187C876,187 970,211 1064,258C1137,295 1174,328 1174,356C1174,357 1173,367 1171,384M570,-224l53,99C631,-110 637,-102 640,-99C643,-97 650,-96 661,-96C746,-96 811,-110 857,-137C903,-164 926,-203 926,-253C926,-301 906,-340 867,-371C825,-404 764,-420 684,-420C605,-420 538,-411 482,-392l23,47C542,-356 576,-361 607,-361C650,-361 685,-353 710,-338C735,-323 748,-303 748,-277C748,-258 741,-241 727,-227C713,-214 696,-207 676,-207C646,-207 621,-219 600,-242z"
   id="glyph1771" />
<glyph
   unicode="é"
   horiz-adv-x="1314"
   d="M430,476l0,-273l711,0C1162,203 1178,208 1189,217C1200,226 1208,243 1215,268l28,0l0,-332l-28,0C1209,-41 1200,-24 1189,-14C1178,-5 1162,0 1141,0l-1043,0l0,28C121,34 138,43 148,54C157,65 162,81 162,102l0,916C162,1039 157,1054 148,1065C139,1076 122,1085 98,1092l0,28l1012,0C1131,1120 1148,1125 1159,1134C1170,1143 1178,1160 1185,1184l27,0l0,-332l-27,0C1178,877 1170,894 1159,903C1148,912 1131,917 1110,917l-680,0l0,-246l422,0C873,671 889,676 900,685C911,694 920,711 927,735l27,0l0,-324l-27,0C920,435 912,452 901,462C890,471 873,476 852,476M945,1533l0,-27C919,1505 899,1496 886,1479l-142,-174C740,1300 738,1295 738,1289C738,1278 745,1273 759,1273C760,1273 761,1273 763,1273l0,-27l-217,0l0,27C562,1273 573,1275 580,1280C587,1285 593,1294 599,1309l66,163C668,1478 669,1483 669,1487C669,1498 660,1504 641,1506l0,27z"
   id="glyph1773" />
<glyph
   unicode="è"
   horiz-adv-x="1314"
   d="M430,476l0,-273l711,0C1162,203 1178,208 1189,217C1200,226 1208,243 1215,268l28,0l0,-332l-28,0C1209,-41 1200,-24 1189,-14C1178,-5 1162,0 1141,0l-1043,0l0,28C121,34 138,43 148,54C157,65 162,81 162,102l0,916C162,1039 157,1054 148,1065C139,1076 122,1085 98,1092l0,28l1012,0C1131,1120 1148,1125 1159,1134C1170,1143 1178,1160 1185,1184l27,0l0,-332l-27,0C1178,877 1170,894 1159,903C1148,912 1131,917 1110,917l-680,0l0,-246l422,0C873,671 889,676 900,685C911,694 920,711 927,735l27,0l0,-324l-27,0C920,435 912,452 901,462C890,471 873,476 852,476M403,1533l304,0l0,-27C688,1504 679,1498 679,1487C679,1483 680,1478 683,1472l66,-163C755,1294 761,1285 768,1280C775,1275 786,1273 802,1273l0,-27l-217,0l0,27C587,1273 589,1273 590,1273C603,1273 610,1278 610,1289C610,1295 608,1300 604,1305l-142,174C449,1496 429,1505 403,1506z"
   id="glyph1775" />
<glyph
   unicode="ê"
   horiz-adv-x="1314"
   d="M430,476l0,-273l711,0C1162,203 1178,208 1189,217C1200,226 1208,243 1215,268l28,0l0,-332l-28,0C1209,-41 1200,-24 1189,-14C1178,-5 1162,0 1141,0l-1043,0l0,28C121,34 138,43 148,54C157,65 162,81 162,102l0,916C162,1039 157,1054 148,1065C139,1076 122,1085 98,1092l0,28l1012,0C1131,1120 1148,1125 1159,1134C1170,1143 1178,1160 1185,1184l27,0l0,-332l-27,0C1178,877 1170,894 1159,903C1148,912 1131,917 1110,917l-680,0l0,-246l422,0C873,671 889,676 900,685C911,694 920,711 927,735l27,0l0,-324l-27,0C920,435 912,452 901,462C890,471 873,476 852,476M588,1246l-250,0l0,27C354,1274 364,1276 369,1279C374,1282 386,1294 407,1315l134,149C548,1472 552,1480 552,1489C552,1500 541,1506 519,1506l0,27l316,0l0,-27C815,1504 805,1498 805,1488C805,1481 810,1471 821,1460l150,-167C982,1280 997,1274 1016,1273l0,-27l-287,0l0,27C750,1275 760,1280 760,1288C760,1291 755,1298 744,1311l-84,103l-92,-106C562,1302 559,1296 559,1290C559,1280 569,1274 588,1273z"
   id="glyph1777" />
<glyph
   unicode="ë"
   horiz-adv-x="1314"
   d="M430,476l0,-273l711,0C1162,203 1178,208 1189,217C1200,226 1208,243 1215,268l28,0l0,-332l-28,0C1209,-41 1200,-24 1189,-14C1178,-5 1162,0 1141,0l-1043,0l0,28C121,34 138,43 148,54C157,65 162,81 162,102l0,916C162,1039 157,1054 148,1065C139,1076 122,1085 98,1092l0,28l1012,0C1131,1120 1148,1125 1159,1134C1170,1143 1178,1160 1185,1184l27,0l0,-332l-27,0C1178,877 1170,894 1159,903C1148,912 1131,917 1110,917l-680,0l0,-246l422,0C873,671 889,676 900,685C911,694 920,711 927,735l27,0l0,-324l-27,0C920,435 912,452 901,462C890,471 873,476 852,476M476,1510C514,1510 546,1497 571,1472C596,1446 609,1414 609,1377C609,1342 596,1312 571,1287C546,1262 515,1249 478,1249C443,1249 412,1262 386,1287C361,1312 348,1342 348,1379C348,1415 360,1446 385,1471C410,1496 440,1509 476,1510M875,1510C912,1510 943,1497 968,1472C993,1446 1006,1416 1006,1382C1006,1344 993,1312 968,1287C943,1262 911,1249 873,1249C838,1249 808,1262 783,1288C758,1313 745,1344 745,1380C745,1415 758,1446 783,1471C808,1496 838,1509 875,1510z"
   id="glyph1779" />
<glyph
   unicode="í"
   horiz-adv-x="593"
   d="M430,1018l0,-916C430,81 435,66 444,55C453,44 470,34 494,27l0,-27l-396,0l0,28C121,34 138,43 148,54C157,65 162,81 162,102l0,916C162,1039 157,1054 148,1065C139,1076 122,1085 98,1092l0,28l396,0l0,-28C470,1085 453,1077 444,1066C435,1055 430,1039 430,1018M577,1533l0,-27C551,1505 531,1496 518,1479l-142,-174C372,1300 370,1295 370,1289C370,1278 377,1273 391,1273C392,1273 393,1273 395,1273l0,-27l-217,0l0,27C194,1273 205,1275 212,1280C219,1285 225,1294 231,1309l66,163C300,1478 301,1483 301,1487C301,1498 292,1504 273,1506l0,27z"
   id="glyph1781" />
<glyph
   unicode="ì"
   horiz-adv-x="593"
   d="M431,1018l0,-916C431,81 436,66 445,55C454,44 471,34 495,27l0,-27l-396,0l0,28C122,34 139,43 149,54C158,65 163,81 163,102l0,916C163,1039 158,1054 149,1065C140,1076 123,1085 99,1092l0,28l396,0l0,-28C471,1085 454,1077 445,1066C436,1055 431,1039 431,1018M15,1533l304,0l0,-27C300,1504 291,1498 291,1487C291,1483 292,1478 295,1472l66,-163C367,1294 373,1285 380,1280C387,1275 398,1273 414,1273l0,-27l-217,0l0,27C199,1273 201,1273 202,1273C215,1273 222,1278 222,1289C222,1295 220,1300 216,1305l-142,174C61,1496 41,1505 15,1506z"
   id="glyph1783" />
<glyph
   unicode="î"
   horiz-adv-x="592"
   d="M431,1018l0,-916C431,81 436,65 446,54C455,43 472,34 495,27l0,-27l-396,0l0,28C122,34 139,43 149,54C158,65 163,81 163,102l0,916C163,1039 158,1054 149,1065C140,1076 123,1085 99,1092l0,28l396,0l0,-28C471,1085 454,1077 445,1066C436,1055 431,1039 431,1018M221,1246l-243,0l0,27C-6,1274 6,1277 15,1282C24,1287 34,1298 47,1315l113,149C168,1474 172,1482 172,1489C172,1500 161,1506 138,1506l0,27l316,0l0,-27C434,1504 424,1498 424,1488C424,1483 429,1473 440,1460l129,-167C580,1280 595,1273 615,1273l0,-27l-280,0l0,27C356,1275 367,1280 366,1288C366,1292 364,1296 359,1301C354,1306 351,1310 350,1311l-70,110l-80,-113C195,1300 192,1294 192,1290C192,1280 202,1274 221,1273z"
   id="glyph1785" />
<glyph
   unicode="ï"
   horiz-adv-x="593"
   d="M430,1018l0,-916C430,81 435,66 444,55C453,44 470,34 494,27l0,-27l-396,0l0,28C121,34 138,43 148,54C157,65 162,81 162,102l0,916C162,1039 157,1054 148,1065C139,1076 122,1085 98,1092l0,28l396,0l0,-28C470,1085 453,1077 444,1066C435,1055 430,1039 430,1018M129,1510C167,1510 199,1497 224,1472C249,1446 262,1414 262,1377C262,1342 249,1312 224,1287C199,1262 168,1249 131,1249C96,1249 65,1262 39,1287C14,1312 1,1342 1,1379C1,1415 13,1446 38,1471C63,1496 93,1509 129,1510M460,1510C497,1510 528,1497 553,1472C578,1446 591,1416 591,1382C591,1344 578,1312 553,1287C528,1262 496,1249 457,1249C422,1249 393,1262 368,1288C343,1313 330,1344 330,1380C330,1415 343,1446 368,1471C393,1496 423,1509 460,1510z"
   id="glyph1787" />
<glyph
   unicode="ñ"
   horiz-adv-x="1523"
   d="M406,738l0,-636C406,81 411,65 421,54C430,43 447,34 470,27l0,-27l-372,0l0,28C121,34 138,43 148,54C157,65 162,81 162,102l0,916C162,1039 157,1054 148,1065C139,1076 122,1085 98,1092l0,28l430,0l0,-28C499,1085 484,1072 484,1053C484,1037 495,1018 516,997l600,-596l0,617C1116,1039 1111,1055 1102,1066C1093,1077 1076,1085 1052,1092l0,28l372,0l0,-28C1400,1085 1383,1077 1374,1066C1365,1055 1360,1039 1360,1018l0,-916C1360,81 1365,66 1374,55C1383,44 1400,34 1424,27l0,-27l-401,0l0,27C1052,33 1067,45 1067,64C1067,73 1063,83 1055,93C1047,103 1029,123 1000,152M984,1517l145,-134l-16,-20C1094,1369 1081,1372 1076,1372C1067,1372 1059,1366 1050,1355C1005,1294 958,1263 908,1263C882,1263 854,1269 823,1281l-148,57C662,1343 647,1345 631,1345C618,1345 605,1340 592,1329C579,1318 573,1306 573,1295C573,1287 578,1277 588,1265l-18,-15l-149,139l14,17C450,1401 462,1398 469,1398C483,1398 496,1405 507,1420C548,1473 599,1500 659,1500C681,1500 703,1496 724,1487l149,-58C892,1422 909,1418 924,1418C937,1418 950,1423 962,1434C974,1445 980,1456 980,1468C980,1477 974,1488 963,1501z"
   id="glyph1789" />
<glyph
   unicode="ó"
   horiz-adv-x="1460"
   d="M728,1144C906,1144 1054,1099 1173,1008C1315,899 1386,746 1386,551C1386,368 1315,221 1173,112C1056,21 908,-24 730,-24C552,-24 404,21 287,112C144,221 73,371 73,560C73,751 144,901 287,1008C405,1097 552,1142 728,1144M729,932C614,932 520,895 447,821C380,752 346,665 346,560C346,456 380,369 447,300C520,225 614,188 730,188C845,188 939,225 1012,300C1079,369 1113,454 1113,555C1113,665 1079,754 1012,821C939,894 844,931 729,932M1018,1533l0,-27C992,1505 972,1496 959,1479l-142,-174C813,1300 811,1295 811,1289C811,1278 818,1273 832,1273C833,1273 834,1273 836,1273l0,-27l-217,0l0,27C635,1273 646,1275 653,1280C660,1285 666,1294 672,1309l66,163C741,1478 742,1483 742,1487C742,1498 733,1504 714,1506l0,27z"
   id="glyph1791" />
<glyph
   unicode="ò"
   horiz-adv-x="1460"
   d="M728,1144C906,1144 1054,1099 1173,1008C1315,899 1386,746 1386,551C1386,368 1315,221 1173,112C1056,21 908,-24 730,-24C552,-24 404,21 287,112C144,221 73,371 73,560C73,751 144,901 287,1008C405,1097 552,1142 728,1144M729,932C614,932 520,895 447,821C380,752 346,665 346,560C346,456 380,369 447,300C520,225 614,188 730,188C845,188 939,225 1012,300C1079,369 1113,454 1113,555C1113,665 1079,754 1012,821C939,894 844,931 729,932M455,1533l304,0l0,-27C740,1504 731,1498 731,1487C731,1483 732,1478 735,1472l66,-163C807,1294 813,1285 820,1280C827,1275 838,1273 854,1273l0,-27l-217,0l0,27C639,1273 641,1273 642,1273C655,1273 662,1278 662,1289C662,1295 660,1300 656,1305l-142,174C501,1496 481,1505 455,1506z"
   id="glyph1793" />
<glyph
   unicode="ô"
   horiz-adv-x="1460"
   d="M728,1144C906,1144 1054,1099 1173,1008C1315,899 1386,746 1386,551C1386,368 1315,221 1173,112C1056,21 908,-24 730,-24C552,-24 404,21 287,112C144,221 73,371 73,560C73,751 144,901 287,1008C405,1097 552,1142 728,1144M729,932C614,932 520,895 447,821C380,752 346,665 346,560C346,456 380,369 447,300C520,225 614,188 730,188C845,188 939,225 1012,300C1079,369 1113,454 1113,555C1113,665 1079,754 1012,821C939,894 844,931 729,932M647,1246l-250,0l0,27C413,1274 423,1276 428,1279C433,1282 445,1294 466,1315l134,149C607,1472 611,1480 611,1489C611,1500 600,1506 578,1506l0,27l316,0l0,-27C874,1504 864,1498 864,1488C864,1481 869,1471 880,1460l150,-167C1041,1280 1056,1274 1075,1273l0,-27l-287,0l0,27C809,1275 819,1280 819,1288C819,1291 814,1298 803,1311l-84,103l-92,-106C621,1302 618,1296 618,1290C618,1280 628,1274 647,1273z"
   id="glyph1795" />
<glyph
   unicode="ö"
   horiz-adv-x="1460"
   d="M728,1144C906,1144 1054,1099 1173,1008C1315,899 1386,746 1386,551C1386,368 1315,221 1173,112C1056,21 908,-24 730,-24C552,-24 404,21 287,112C144,221 73,371 73,560C73,751 144,901 287,1008C405,1097 552,1142 728,1144M729,932C614,932 520,895 447,821C380,752 346,665 346,560C346,456 380,369 447,300C520,225 614,188 730,188C845,188 939,225 1012,300C1079,369 1113,454 1113,555C1113,665 1079,754 1012,821C939,894 844,931 729,932M536,1510C574,1510 606,1497 631,1472C656,1446 669,1414 669,1377C669,1342 656,1312 631,1287C606,1262 575,1249 538,1249C503,1249 472,1262 446,1287C421,1312 408,1342 408,1379C408,1415 420,1446 445,1471C470,1496 500,1509 536,1510M935,1510C972,1510 1003,1497 1028,1472C1053,1446 1066,1416 1066,1382C1066,1344 1053,1312 1028,1287C1003,1262 971,1249 933,1249C898,1249 868,1262 843,1288C818,1313 805,1344 805,1380C805,1415 818,1446 843,1471C868,1496 898,1509 935,1510z"
   id="glyph1797" />
<glyph
   unicode="õ"
   horiz-adv-x="1460"
   d="M728,1144C906,1144 1054,1099 1173,1008C1315,899 1386,746 1386,551C1386,368 1315,221 1173,112C1056,21 908,-24 730,-24C552,-24 404,21 287,112C144,221 73,371 73,560C73,751 144,901 287,1008C405,1097 552,1142 728,1144M729,932C614,932 520,895 447,821C380,752 346,665 346,560C346,456 380,369 447,300C520,225 614,188 730,188C845,188 939,225 1012,300C1079,369 1113,454 1113,555C1113,665 1079,754 1012,821C939,894 844,931 729,932M952,1517l145,-134l-16,-20C1062,1369 1049,1372 1044,1372C1035,1372 1027,1366 1018,1355C973,1294 926,1263 876,1263C850,1263 822,1269 791,1281l-148,57C630,1343 615,1345 599,1345C586,1345 573,1340 560,1329C547,1318 541,1306 541,1295C541,1287 546,1277 556,1265l-18,-15l-149,139l14,17C418,1401 430,1398 437,1398C451,1398 464,1405 475,1420C516,1473 567,1500 627,1500C649,1500 671,1496 692,1487l149,-58C860,1422 877,1418 892,1418C905,1418 918,1423 930,1434C942,1445 948,1456 948,1468C948,1477 942,1488 931,1501z"
   id="glyph1799" />
<glyph
   unicode="ú"
   horiz-adv-x="1414"
   d="M1273,1018l0,-593C1273,290 1246,190 1193,127C1107,26 945,-24 707,-24C548,-24 419,0 321,49C250,84 202,135 176,200C152,260 140,335 140,425l0,593C140,1039 135,1054 126,1065C117,1076 100,1085 76,1092l0,28l397,0l0,-28C448,1085 431,1077 422,1066C413,1055 408,1039 408,1018l0,-539C408,416 414,368 425,335C436,302 455,274 482,253C537,210 616,188 719,188C822,188 901,210 956,253C983,274 1001,302 1012,335C1023,368 1028,416 1028,479l0,539C1028,1039 1024,1054 1015,1065C1006,1076 989,1085 964,1092l0,28l373,0l0,-28C1313,1085 1296,1077 1287,1066C1278,1055 1273,1039 1273,1018M981,1533l0,-27C955,1505 935,1496 922,1479l-142,-174C776,1300 774,1295 774,1289C774,1278 781,1273 795,1273C796,1273 797,1273 799,1273l0,-27l-217,0l0,27C598,1273 609,1275 616,1280C623,1285 629,1294 635,1309l66,163C704,1478 705,1483 705,1487C705,1498 696,1504 677,1506l0,27z"
   id="glyph1801" />
<glyph
   unicode="ù"
   horiz-adv-x="1414"
   d="M1273,1018l0,-593C1273,290 1246,190 1193,127C1107,26 945,-24 707,-24C548,-24 419,0 321,49C250,84 202,135 176,200C152,260 140,335 140,425l0,593C140,1039 135,1054 126,1065C117,1076 100,1085 76,1092l0,28l397,0l0,-28C448,1085 431,1077 422,1066C413,1055 408,1039 408,1018l0,-539C408,416 414,368 425,335C436,302 455,274 482,253C537,210 616,188 719,188C822,188 901,210 956,253C983,274 1001,302 1012,335C1023,368 1028,416 1028,479l0,539C1028,1039 1024,1054 1015,1065C1006,1076 989,1085 964,1092l0,28l373,0l0,-28C1313,1085 1296,1077 1287,1066C1278,1055 1273,1039 1273,1018M439,1533l304,0l0,-27C724,1504 715,1498 715,1487C715,1483 716,1478 719,1472l66,-163C791,1294 797,1285 804,1280C811,1275 822,1273 838,1273l0,-27l-217,0l0,27C623,1273 625,1273 626,1273C639,1273 646,1278 646,1289C646,1295 644,1300 640,1305l-142,174C485,1496 465,1505 439,1506z"
   id="glyph1803" />
<glyph
   unicode="û"
   horiz-adv-x="1414"
   d="M1273,1018l0,-593C1273,290 1246,190 1193,127C1107,26 945,-24 707,-24C548,-24 419,0 321,49C250,84 202,135 176,200C152,260 140,335 140,425l0,593C140,1039 135,1054 126,1065C117,1076 100,1085 76,1092l0,28l397,0l0,-28C448,1085 431,1077 422,1066C413,1055 408,1039 408,1018l0,-539C408,416 414,368 425,335C436,302 455,274 482,253C537,210 616,188 719,188C822,188 901,210 956,253C983,274 1001,302 1012,335C1023,368 1028,416 1028,479l0,539C1028,1039 1024,1054 1015,1065C1006,1076 989,1085 964,1092l0,28l373,0l0,-28C1313,1085 1296,1077 1287,1066C1278,1055 1273,1039 1273,1018M624,1246l-250,0l0,27C390,1274 400,1276 405,1279C410,1282 422,1294 443,1315l134,149C584,1472 588,1480 588,1489C588,1500 577,1506 555,1506l0,27l316,0l0,-27C851,1504 841,1498 841,1488C841,1481 846,1471 857,1460l150,-167C1018,1280 1033,1274 1052,1273l0,-27l-287,0l0,27C786,1275 796,1280 796,1288C796,1291 791,1298 780,1311l-84,103l-92,-106C598,1302 595,1296 595,1290C595,1280 605,1274 624,1273z"
   id="glyph1805" />
<glyph
   unicode="ü"
   horiz-adv-x="1414"
   d="M1273,1018l0,-593C1273,290 1246,190 1193,127C1107,26 945,-24 707,-24C548,-24 419,0 321,49C250,84 202,135 176,200C152,260 140,335 140,425l0,593C140,1039 135,1054 126,1065C117,1076 100,1085 76,1092l0,28l397,0l0,-28C448,1085 431,1077 422,1066C413,1055 408,1039 408,1018l0,-539C408,416 414,368 425,335C436,302 455,274 482,253C537,210 616,188 719,188C822,188 901,210 956,253C983,274 1001,302 1012,335C1023,368 1028,416 1028,479l0,539C1028,1039 1024,1054 1015,1065C1006,1076 989,1085 964,1092l0,28l373,0l0,-28C1313,1085 1296,1077 1287,1066C1278,1055 1273,1039 1273,1018M512,1510C550,1510 582,1497 607,1472C632,1446 645,1414 645,1377C645,1342 632,1312 607,1287C582,1262 551,1249 514,1249C479,1249 448,1262 422,1287C397,1312 384,1342 384,1379C384,1415 396,1446 421,1471C446,1496 476,1509 512,1510M911,1510C948,1510 979,1497 1004,1472C1029,1446 1042,1416 1042,1382C1042,1344 1029,1312 1004,1287C979,1262 947,1249 909,1249C874,1249 844,1262 819,1288C794,1313 781,1344 781,1380C781,1415 794,1446 819,1471C844,1496 874,1509 911,1510z"
   id="glyph1807" />
<glyph
   unicode="†"
   horiz-adv-x="1104"
   d="M640,1074l264,0C925,1074 940,1079 951,1088C962,1097 970,1114 977,1138l32,0l0,-316l-32,0C970,846 962,863 951,872C940,881 925,886 904,886l-264,0l41,-918C682,-54 686,-70 695,-79C704,-89 720,-98 745,-105l0,-32l-385,0l0,32C385,-97 401,-88 410,-78C419,-69 423,-53 424,-32l41,918l-264,0C180,886 165,881 154,872C143,863 135,846 128,822l-32,0l0,316l32,0C136,1111 146,1093 158,1086C169,1078 193,1074 228,1074l237,0l-41,323C421,1421 416,1438 408,1447C400,1456 384,1463 360,1470l0,32l385,0l0,-32C721,1463 705,1455 697,1446C688,1437 683,1420 681,1397z"
   id="glyph1809" />
<glyph
   unicode="°"
   horiz-adv-x="945"
   d="M473,1404C565,1404 643,1370 708,1301C765,1240 794,1166 794,1078C794,989 762,913 697,850C634,789 559,759 472,759C377,759 297,794 233,864C178,925 150,997 150,1080C150,1127 160,1172 180,1216C199,1260 226,1296 260,1325C321,1376 392,1403 473,1404M470,1287C419,1287 375,1269 337,1232C293,1190 271,1140 271,1081C271,1031 287,986 320,947C359,900 410,876 471,876C525,876 572,896 613,936C653,976 673,1023 673,1076C673,1134 654,1183 617,1222C576,1265 527,1286 470,1287z"
   id="glyph1811" />
<glyph
   unicode="¢"
   horiz-adv-x="1461"
   d="M706,105C598,114 503,139 420,181C330,226 258,292 205,378C147,470 118,573 118,686C118,837 167,965 264,1072C367,1186 515,1251 706,1266l0,53C706,1340 701,1357 692,1368C683,1379 666,1387 642,1394l0,27l273,0l0,-27C891,1387 874,1378 865,1367C856,1356 851,1340 851,1319l0,-52C926,1264 993,1252 1053,1231C1112,1210 1199,1167 1313,1102C1326,1095 1337,1091 1346,1091C1355,1091 1368,1097 1385,1108l22,-18l-169,-245l-22,17C1217,871 1218,878 1218,883C1218,912 1198,938 1157,961C1099,994 1049,1018 1006,1031C963,1044 912,1053 851,1058l0,-744C944,321 1030,344 1109,384C1182,421 1219,454 1219,482C1219,483 1218,493 1216,510l22,17l169,-246l-23,-17C1369,275 1356,281 1345,281C1336,281 1296,261 1225,220C1161,183 1102,157 1048,140C994,123 928,111 851,104l0,-58C851,25 856,9 865,-2C874,-13 891,-22 915,-29l0,-27l-273,0l0,27C666,-22 683,-13 692,-2C701,9 706,25 706,46M706,326l0,720C632,1027 573,999 528,963C439,890 394,798 394,686C394,573 439,481 528,409C573,373 632,345 706,326z"
   id="glyph1813" />
<glyph
   unicode="£"
   horiz-adv-x="1461"
   d="M309,805C299,885 294,943 294,980C294,1088 329,1175 398,1242C447,1288 509,1324 585,1350C661,1376 743,1389 831,1389C953,1389 1059,1367 1150,1322C1189,1303 1240,1270 1302,1223C1337,1197 1365,1184 1386,1184C1394,1184 1404,1187 1415,1194l20,-25l-292,-211l-20,26C1135,992 1141,1003 1141,1017C1141,1041 1120,1068 1078,1097C1019,1137 946,1157 858,1157C772,1157 706,1139 659,1104C612,1069 588,1019 588,955C588,932 591,882 598,805l228,0C847,805 862,810 873,819C884,828 892,845 899,869l32,0l0,-324l-32,0C892,569 884,586 873,596C862,605 847,610 826,610l-206,0C625,565 627,529 627,502C627,441 620,393 605,358C590,323 561,284 516,241C586,261 648,271 702,271C749,271 808,262 879,245C937,230 977,223 1000,223C1031,223 1060,232 1087,250C1113,268 1126,288 1126,311C1126,326 1119,340 1105,352l22,23l288,-221l-19,-23C1381,139 1369,143 1359,143C1342,143 1305,124 1248,85C1200,53 1157,30 1119,17C1081,4 1039,-3 993,-3C966,-3 941,-1 920,2C898,5 836,15 733,33C696,40 650,43 594,43C461,43 343,16 238,-38l-96,217C217,219 268,262 297,309C325,355 339,419 339,501C339,529 337,565 334,610l-81,0C232,610 217,605 206,596C195,586 187,569 180,545l-32,0l0,324l32,0C187,845 195,828 206,819C217,810 232,805 253,805z"
   id="glyph1815" />
<glyph
   unicode="§"
   horiz-adv-x="1374"
   d="M1137,457C1194,417 1233,381 1252,348C1271,315 1280,270 1280,212C1280,111 1243,26 1169,-41C1079,-123 933,-164 731,-164C628,-164 536,-153 455,-130C374,-108 288,-70 196,-15C181,-6 170,-2 161,-2C152,-2 138,-10 117,-25l-21,13l174,266l22,-14C286,225 283,213 283,205C283,180 308,152 359,120C450,62 574,33 730,33C844,33 931,53 990,92C1039,125 1063,162 1063,205C1063,242 1042,269 1000,288C957,306 881,321 771,333l-197,20C442,367 343,397 276,442C242,465 215,495 196,534C177,572 167,613 167,658C167,743 193,811 244,861C263,879 292,900 333,924C282,951 244,978 221,1007C186,1051 168,1106 168,1171C168,1283 212,1371 299,1435C386,1498 506,1530 660,1530C731,1530 799,1524 864,1511C929,1498 1006,1476 1095,1445C1117,1438 1135,1434 1150,1434C1158,1434 1171,1442 1189,1459l23,-10l-137,-278l-23,11C1056,1197 1058,1208 1058,1215C1058,1234 1033,1255 982,1277C933,1298 886,1313 842,1321C797,1329 741,1333 672,1333C579,1333 508,1321 458,1296C403,1269 375,1235 375,1193C375,1163 391,1140 423,1125C454,1110 510,1098 591,1089l192,-21C934,1052 1049,1023 1128,982C1229,929 1280,842 1280,721C1280,662 1268,609 1243,563C1218,517 1183,482 1137,457M881,535C945,560 988,583 1011,602C1045,631 1062,666 1062,707C1062,746 1045,775 1012,794C978,812 916,826 825,837l-263,30C437,819 374,760 374,690C374,651 396,623 439,606C459,598 510,588 592,577z"
   id="glyph1817" />
<glyph
   unicode="•"
   horiz-adv-x="1365"
   d="M689,978C764,978 830,950 885,895C941,840 969,773 969,694C969,615 941,548 885,493C830,438 764,410 685,410C606,410 540,438 485,493C429,548 401,615 401,693C401,774 429,841 485,895C541,950 609,978 689,978z"
   id="glyph1819" />
<glyph
   unicode="¶"
   horiz-adv-x="1307"
   d="M641,635l-181,0C419,635 374,642 324,657C274,672 234,689 204,710C95,785 41,885 41,1010C41,1086 64,1153 110,1210C142,1250 177,1281 216,1303C254,1324 300,1339 354,1348C421,1359 462,1365 477,1365l775,0l0,-32C1227,1326 1210,1317 1201,1306C1192,1295 1188,1275 1188,1247l0,-1293C1188,-74 1192,-94 1201,-105C1210,-116 1227,-125 1252,-132l0,-32l-255,0l0,1406l-165,0l0,-1406l-255,0l0,32C603,-125 620,-116 629,-105C637,-94 641,-74 641,-46z"
   id="glyph1821" />
<glyph
   unicode="ß"
   horiz-adv-x="2522"
   d="M1175,1019l-135,-261l-24,13C1016,793 1009,810 995,823C957,857 901,885 827,907C753,929 678,940 602,940C537,940 480,931 430,913C358,887 322,849 322,800C322,767 339,744 374,731C409,717 476,706 575,698l158,-12C871,675 976,649 1048,606C1088,582 1121,550 1147,510C1180,460 1196,404 1196,341C1196,227 1145,137 1042,71C944,8 811,-24 644,-24C475,-24 312,12 155,83C144,88 135,90 128,90C115,90 102,82 91,66l-25,10l115,274l25,-10C206,336 206,333 206,332C206,315 213,300 226,288C259,259 317,233 399,212C481,190 562,179 642,179C713,179 776,188 832,207C901,230 936,266 936,317C936,358 912,386 864,402C832,413 774,422 691,429l-157,13C449,449 385,457 340,468C295,479 256,494 223,515C180,542 147,578 123,624C99,670 87,720 87,775C87,898 140,991 245,1056C341,1115 460,1144 601,1144C678,1144 749,1136 816,1119C882,1102 961,1072 1053,1029C1080,1016 1099,1010 1110,1010C1121,1010 1134,1017 1151,1032M2437,1019l-136,-261l-24,13C2278,776 2278,779 2278,782C2278,800 2265,819 2238,838C2193,869 2137,894 2070,913C2003,931 1934,940 1863,940C1798,940 1741,931 1691,913C1619,887 1583,849 1583,800C1583,767 1600,744 1635,731C1670,717 1737,706 1837,698l157,-12C2132,675 2237,649 2310,606C2349,582 2382,550 2408,510C2441,460 2457,404 2457,341C2457,227 2406,137 2304,71C2205,8 2073,-24 1906,-24C1737,-24 1574,12 1417,83C1406,88 1396,90 1389,90C1376,90 1363,82 1352,66l-25,10l115,274l26,-10C1467,336 1467,333 1467,332C1467,315 1474,300 1487,288C1520,259 1578,233 1660,212C1742,190 1823,179 1903,179C1974,179 2037,188 2093,207C2162,230 2197,266 2197,317C2197,358 2173,386 2125,402C2093,413 2035,422 1952,429l-157,13C1710,449 1646,457 1601,468C1556,479 1517,494 1484,515C1441,542 1408,578 1384,624C1360,670 1348,720 1348,775C1348,898 1401,991 1506,1056C1602,1115 1721,1144 1862,1144C1939,1144 2010,1136 2077,1119C2143,1102 2222,1072 2314,1029C2341,1016 2360,1010 2371,1010C2382,1010 2395,1017 2412,1032z"
   id="glyph1823" />
<glyph
   unicode="®"
   horiz-adv-x="1818"
   d="M907,1389C1148,1389 1342,1326 1489,1200C1572,1130 1634,1044 1675,943C1709,860 1726,770 1726,674C1726,544 1689,422 1615,309C1534,184 1421,93 1276,38C1168,-3 1046,-24 909,-24C670,-24 477,39 330,165C248,236 186,321 144,422C110,505 93,592 93,683C93,818 130,943 203,1057C283,1180 396,1270 543,1327C646,1366 767,1387 907,1389M907,1271C694,1271 526,1212 403,1093C290,984 233,847 233,682C233,518 290,381 403,272C526,153 695,94 909,94C1124,94 1293,153 1416,272C1529,381 1586,515 1586,674C1586,847 1529,987 1416,1093C1349,1156 1276,1201 1199,1227C1113,1256 1016,1270 907,1271M710,601l0,-260C710,330 713,322 718,317C723,312 733,307 748,304l0,-31l-265,0l0,31C498,307 508,312 513,317C518,322 521,330 521,341l0,683C521,1035 519,1044 514,1049C509,1054 498,1058 483,1062l0,31l510,-1C1056,1092 1105,1088 1142,1081C1179,1074 1210,1061 1237,1043C1300,1001 1332,935 1332,845C1332,710 1261,632 1118,609l150,-213C1296,357 1316,332 1329,322C1341,311 1357,306 1377,305l0,-32l-305,0l0,32C1092,307 1102,312 1102,320C1102,324 1093,340 1075,367l-160,234M710,748l265,0C1038,748 1081,754 1102,765C1129,780 1143,808 1143,847C1143,886 1129,913 1102,928C1081,939 1038,945 975,945l-265,0z"
   id="glyph1825" />
<glyph
   unicode="©"
   horiz-adv-x="1808"
   d="M907,1389C1148,1389 1342,1326 1489,1200C1572,1130 1634,1044 1675,943C1709,860 1726,770 1726,674C1726,544 1689,422 1615,309C1534,184 1421,93 1276,38C1168,-3 1046,-24 909,-24C670,-24 477,39 330,165C248,236 186,321 144,422C110,505 93,592 93,683C93,818 130,943 203,1057C283,1180 396,1270 543,1327C646,1366 767,1387 907,1389M907,1271C694,1271 526,1212 403,1093C290,984 233,847 233,682C233,518 290,381 403,272C526,153 695,94 909,94C1124,94 1293,153 1416,272C1529,381 1586,515 1586,674C1586,847 1529,987 1416,1093C1349,1156 1276,1201 1199,1227C1113,1256 1016,1270 907,1271M1240,566l119,-179l-25,-18C1323,381 1314,387 1308,387C1302,387 1283,378 1252,360C1186,321 1129,295 1081,281C1033,266 977,259 913,259C784,259 678,289 596,350C487,431 432,542 432,683C432,824 487,935 596,1016C678,1077 784,1107 913,1107C974,1107 1028,1101 1075,1088C1122,1075 1174,1051 1232,1018l20,-11C1283,989 1302,980 1308,980C1313,980 1322,986 1334,997l25,-18l-119,-179l-25,17C1216,826 1217,832 1217,837C1217,854 1196,874 1153,898C1084,937 1012,956 936,956C845,956 773,934 720,889C657,836 625,768 625,683C625,600 653,534 710,485C767,435 842,410 936,410C1012,410 1084,429 1153,468C1196,492 1217,512 1217,529C1217,534 1216,540 1215,549z"
   id="glyph1827" />
<glyph
   unicode="™"
   horiz-adv-x="2083"
   d="M528,1225l0,-573C528,642 531,635 536,630C541,625 552,621 568,617l0,-30l-278,0l0,30C306,621 317,625 322,630C327,635 330,642 330,652l0,573l-256,0C62,1225 53,1223 48,1218C43,1213 38,1204 34,1190l-32,0l0,211l32,0C38,1386 43,1377 48,1372C53,1367 62,1365 74,1365l710,0C795,1365 804,1367 809,1372C814,1377 819,1386 823,1401l32,0l0,-211l-32,0C819,1204 814,1213 809,1218C804,1223 795,1225 784,1225M1454,591l-305,507l0,-446C1149,642 1152,635 1157,630C1162,625 1173,621 1189,617l0,-30l-263,0l0,30C942,621 953,625 958,630C963,635 966,642 966,652l0,648C966,1310 963,1318 958,1323C953,1328 942,1332 926,1335l0,30l340,0l0,-30C1247,1331 1237,1323 1237,1310C1237,1303 1240,1296 1245,1287l225,-375l227,368C1707,1296 1712,1307 1712,1314C1712,1327 1702,1333 1681,1334l0,31l333,0l0,-30C1998,1332 1987,1328 1982,1323C1977,1318 1974,1310 1974,1300l0,-648C1974,642 1977,635 1982,630C1987,625 1998,621 2014,617l0,-30l-277,0l0,30C1752,621 1763,625 1768,630C1773,635 1776,642 1776,652l0,447z"
   id="glyph1829" />
<glyph
   unicode="´"
   horiz-adv-x="1024"
   d="M778,1533l0,-27C752,1505 732,1496 719,1479l-142,-174C573,1300 571,1295 571,1289C571,1278 578,1273 592,1273C593,1273 594,1273 596,1273l0,-27l-217,0l0,27C395,1273 406,1275 413,1280C420,1285 426,1294 432,1309l66,163C501,1478 502,1483 502,1487C502,1498 493,1504 474,1506l0,27z"
   id="glyph1831" />
<glyph
   unicode="¨"
   horiz-adv-x="1024"
   d="M311,1510C349,1510 381,1497 406,1472C431,1446 444,1414 444,1377C444,1342 431,1312 406,1287C381,1262 350,1249 313,1249C278,1249 247,1262 221,1287C196,1312 183,1342 183,1379C183,1415 195,1446 220,1471C245,1496 275,1509 311,1510M710,1510C747,1510 778,1497 803,1472C828,1446 841,1416 841,1382C841,1344 828,1312 803,1287C778,1262 746,1249 708,1249C673,1249 643,1262 618,1288C593,1313 580,1344 580,1380C580,1415 593,1446 618,1471C643,1496 673,1509 710,1510z"
   id="glyph1833" />
<glyph
   unicode="≠"
   horiz-adv-x="1570"
   d="M831,1013l92,197C928,1220 930,1231 930,1243C930,1259 918,1277 893,1298l12,26l295,-136l-13,-27C1174,1164 1164,1165 1155,1165C1130,1165 1112,1152 1101,1127l-54,-114l193,0C1259,1013 1273,1018 1283,1027C1292,1036 1300,1053 1306,1077l30,0l0,-324l-30,0C1300,777 1292,794 1283,803C1273,812 1259,817 1240,817l-284,0l-125,-268l409,0C1259,549 1273,554 1283,563C1292,572 1300,588 1306,612l30,0l0,-324l-30,0C1300,313 1292,330 1283,339C1273,348 1259,353 1240,353l-501,0l-92,-198C642,145 640,134 640,122C640,105 652,87 677,67l-13,-26l-294,137l13,27C396,202 407,201 416,201C440,201 458,213 469,238l54,115l-193,0C311,353 297,348 288,339C278,330 270,313 263,288l-29,0l0,324l30,0C269,589 277,572 287,563C297,554 311,549 330,549l284,0l125,268l-409,0C311,817 296,812 287,803C278,794 270,777 263,753l-29,0l0,324l30,0C269,1053 277,1036 287,1027C297,1018 311,1013 330,1013z"
   id="glyph1835" />
<glyph
   unicode="Æ"
   horiz-adv-x="2381"
   d="M1013,348l-489,0l-112,-192C395,127 386,104 386,88C386,61 406,43 446,32l0,-32l-472,0l0,32C2,38 23,47 38,60C53,73 71,99 94,138l604,1049C720,1224 731,1253 731,1272C731,1300 711,1320 671,1333l0,32l1493,0C2185,1365 2200,1370 2211,1380C2222,1389 2230,1406 2237,1430l32,0l0,-353l-32,0C2230,1100 2222,1117 2211,1126C2200,1135 2185,1140 2164,1140l-853,0l0,-324l553,0C1884,816 1899,821 1910,830C1921,839 1929,856 1936,880l32,0l0,-345l-32,0C1929,559 1921,576 1910,585C1899,594 1884,599 1864,599l-553,0l0,-374l877,0C2209,225 2224,230 2235,239C2246,248 2254,265 2261,289l32,0l0,-353l-32,0C2254,-40 2246,-23 2235,-14C2224,-5 2209,0 2188,0l-1239,0l0,32C973,39 990,47 999,58C1008,69 1013,84 1013,105M1013,535l0,605l-43,0l-338,-605z"
   id="glyph1837" />
<glyph
   unicode="Ø"
   horiz-adv-x="1752"
   d="M1244,1502l400,0l0,-39C1611,1458 1585,1448 1566,1431C1547,1414 1509,1368 1453,1294l-50,-66C1574,1085 1660,904 1660,683C1660,546 1625,422 1554,309C1416,87 1190,-24 876,-24C801,-24 738,-19 685,-9C632,0 572,17 506,42l-34,-45C455,-26 447,-43 447,-56C447,-83 467,-97 508,-98l0,-39l-401,0l0,39C142,-91 172,-76 197,-54C222,-33 259,10 308,75l45,59C178,279 91,462 91,683C91,820 126,944 197,1057C334,1278 561,1389 876,1389C951,1389 1016,1384 1069,1375C1122,1365 1183,1347 1250,1321l33,43C1296,1381 1302,1396 1302,1411C1302,1441 1283,1458 1244,1463M664,250C732,222 802,208 874,208C1007,208 1116,247 1202,324C1305,415 1356,535 1356,683C1356,804 1316,912 1236,1008M1093,1114C1022,1143 950,1157 877,1157C744,1157 635,1119 549,1042C446,950 395,831 395,684C395,559 436,449 519,354z"
   id="glyph1839" />
<glyph
   unicode="∞"
   horiz-adv-x="1365"
   d="M687,570C654,530 625,497 598,472C527,407 446,374 354,374C258,374 180,407 119,472C64,531 36,606 36,698C36,792 66,868 125,927C186,987 262,1017 353,1017C472,1017 580,952 678,823C776,952 887,1017 1011,1017C1112,1017 1194,982 1255,911C1304,854 1329,782 1329,696C1329,601 1300,525 1242,466C1181,405 1105,374 1012,374C950,374 893,390 842,421C790,452 738,501 687,570M777,696C844,595 913,545 985,545C1027,545 1062,559 1090,588C1118,617 1132,653 1132,696C1132,739 1118,774 1090,803C1061,832 1026,846 984,846C928,846 875,817 825,760C818,752 809,740 796,723C783,706 777,697 777,696M587,695C520,796 450,846 377,846C335,846 301,832 274,804C247,775 233,739 233,695C233,652 247,616 275,588C302,560 338,546 381,546C438,546 491,574 539,631C546,639 556,652 569,669C582,686 588,694 587,695z"
   id="glyph1841" />
<glyph
   unicode="±"
   horiz-adv-x="1570"
   d="M687,585l-357,0C311,585 297,580 288,571C278,562 270,545 263,521l-29,0l0,324l30,0C269,821 277,804 287,795C297,786 311,781 330,781l357,0l0,356C687,1156 682,1170 673,1180C664,1189 647,1197 623,1203l0,30l324,0l0,-29C923,1197 906,1189 897,1180C888,1170 883,1156 883,1137l0,-356l357,0C1259,781 1273,786 1283,795C1292,804 1300,821 1306,845l30,0l0,-324l-30,0C1300,545 1292,562 1283,571C1273,580 1259,585 1240,585l-357,0l0,-289C883,277 888,263 897,253C906,243 923,235 947,229l0,-29l-324,0l0,30C647,235 664,243 673,253C682,263 687,277 687,296M234,-190l0,324l30,0C269,111 277,94 287,85C297,76 311,71 330,71l910,0C1259,71 1273,76 1283,85C1292,94 1300,110 1306,134l30,0l0,-324l-30,0C1300,-165 1292,-148 1283,-139C1273,-130 1259,-125 1240,-125l-910,0C311,-125 296,-130 287,-139C278,-148 270,-165 263,-190z"
   id="glyph1843" />
<glyph
   unicode="≤"
   horiz-adv-x="1024"
   d="M955,1307l0,-271l-571,-190l571,-189l0,-271l-887,339l0,244M955,330l0,-254l-887,0l0,254z"
   id="glyph1845" />
<glyph
   unicode="≥"
   horiz-adv-x="1024"
   d="M68,1307l887,-338l0,-244l-887,-339l0,271l571,189l-571,190M68,330l887,0l0,-254l-887,0z"
   id="glyph1847" />
<glyph
   unicode="¥"
   horiz-adv-x="1461"
   d="M582,404l-291,0C270,404 255,398 244,387C233,375 225,354 218,325l-32,0l0,340l32,0C225,641 233,624 244,615C255,606 270,601 291,601l272,0l-119,236l-235,0C188,837 173,831 162,820C151,808 143,787 136,758l-32,0l0,340l32,0C143,1074 151,1057 162,1048C173,1039 188,1034 209,1034l139,0l-99,158C221,1237 194,1270 167,1293C140,1316 112,1329 82,1333l0,32l540,0l0,-32C577,1326 555,1305 555,1272C555,1265 557,1258 560,1251C563,1244 573,1223 591,1189l143,-363l148,363C900,1222 911,1243 914,1250C917,1257 918,1264 918,1272C918,1305 896,1326 851,1333l0,32l527,0l0,-32C1348,1329 1320,1316 1293,1293C1266,1270 1239,1237 1211,1192l-98,-158l139,0C1272,1034 1288,1039 1299,1049C1310,1058 1318,1075 1324,1098l32,0l0,-340l-32,0C1318,787 1310,808 1299,820C1288,831 1272,837 1252,837l-234,0l-119,-236l271,0C1191,601 1206,606 1217,616C1228,625 1236,642 1242,665l32,0l0,-340l-32,0C1236,354 1228,375 1217,387C1206,398 1190,404 1170,404l-290,0l0,-299C880,84 885,69 895,58C904,47 921,39 945,32l0,-32l-429,0l0,32C541,39 558,47 568,58C577,69 582,84 582,105z"
   id="glyph1849" />
<glyph
   unicode="µ"
   horiz-adv-x="984"
   d="M1032,110l0,-40l-261,-93C766,-24 762,-25 759,-25C730,-25 706,-13 687,11C676,27 661,63 642,119C603,77 574,48 554,32C503,-10 446,-31 383,-31C326,-31 282,-18 249,7C216,32 187,77 161,140C160,124 160,114 160,109C160,69 165,29 174,-12C183,-53 199,-109 223,-180C238,-226 246,-263 246,-290C246,-316 237,-339 220,-358C195,-387 161,-402 120,-402C79,-402 47,-391 23,-370C-2,-349 -14,-320 -14,-284C-14,-252 -8,-207 4,-150C45,45 66,261 68,497l0,439l269,0l0,-588C337,248 347,180 368,144C377,130 390,118 407,109C424,99 442,94 460,94C488,94 514,102 539,119C564,136 592,164 624,205l0,731l267,0l0,-666C891,201 897,155 908,133C919,110 941,99 976,99C992,99 1011,103 1032,110z"
   id="glyph1851" />
<glyph
   unicode="∂"
   horiz-adv-x="1024"
   d="M134,1146l32,214C293,1345 404,1319 499,1283C621,1236 724,1163 809,1063C926,924 985,745 985,527C985,360 944,229 861,133C770,29 650,-23 500,-23C357,-23 242,28 156,129C78,220 39,327 39,450C39,545 65,630 118,706C156,762 206,806 268,837C330,868 397,883 470,883C538,883 592,870 633,843C638,840 659,824 696,797C701,793 708,788 718,781C712,792 708,800 706,804C677,864 654,905 637,926C620,947 592,972 553,1000C438,1080 298,1129 134,1146M520,679C463,679 413,661 372,624C317,576 289,514 289,437C289,368 313,309 360,261C403,218 455,196 516,196C578,196 630,220 672,267C714,314 735,373 735,442C735,510 715,566 675,611C634,655 583,678 520,679z"
   id="glyph1853" />
<glyph
   unicode="∑"
   horiz-adv-x="1365"
   d="M1265,1536l0,-515l-248,0l-30,262l-610,0l498,-738l-496,-804l627,0l17,270l261,0l0,-523l-1215,0l0,292l480,764l-480,702l0,290z"
   id="glyph1855" />
<glyph
   unicode="∏"
   horiz-adv-x="1365"
   d="M41,1536l1283,0l0,-221l-147,0l0,-1606l147,0l0,-221l-530,0l0,221l136,0l0,1606l-494,0l0,-1606l133,0l0,-221l-528,0l0,221l150,0l0,1606l-150,0z"
   id="glyph1857" />
<glyph
   unicode="π"
   horiz-adv-x="1252"
   d="M190,0l0,778l-149,0l0,204l1171,0l0,-204l-148,0l0,-778l-257,0l0,778l-360,0l0,-778z"
   id="glyph1859" />
<glyph
   unicode="∫"
   horiz-adv-x="1024"
   d="M110,-491l48,260C193,-244 221,-251 243,-251C269,-251 292,-245 312,-233C332,-221 346,-205 353,-185C358,-170 362,-154 363,-135C364,-117 364,-61 365,34l0,906C365,1055 366,1135 369,1181C372,1226 377,1266 386,1299C406,1378 455,1441 533,1487C589,1520 660,1536 747,1536C786,1536 842,1529 915,1515l-48,-260C834,1268 804,1275 779,1275C730,1275 696,1257 678,1221C666,1198 660,1151 660,1079l0,-1071C660,-124 654,-215 641,-266C624,-335 583,-393 518,-439C453,-486 358,-510 235,-510C202,-510 168,-505 134,-496C125,-494 117,-492 110,-491z"
   id="glyph1861" />
<glyph
   unicode="ª"
   horiz-adv-x="1046"
   d="M194,1337l29,18C230,1348 236,1344 241,1344C244,1344 248,1345 254,1348C311,1375 387,1389 482,1389C580,1389 658,1370 717,1331C775,1292 804,1240 804,1175l0,-300C804,863 807,855 814,850C820,845 833,841 852,838l0,-27l-169,0l0,63C655,844 628,823 601,812C574,801 539,795 497,795C419,795 350,814 289,853C232,890 203,938 203,999C203,1058 232,1107 289,1144C348,1183 419,1202 501,1202C542,1202 575,1197 602,1187C628,1177 655,1158 683,1131l0,52C683,1218 665,1247 629,1268C593,1289 545,1300 486,1300C443,1300 401,1295 359,1286C316,1277 295,1267 295,1257C295,1256 298,1249 304,1237l-29,-17M513,1106C450,1106 401,1093 364,1068C336,1049 322,1024 322,994C322,965 340,941 377,921C414,901 458,891 511,891C560,891 602,901 635,921C668,940 684,965 684,994C684,1027 669,1053 638,1074C607,1095 565,1105 513,1106M848,771l0,-258l-24,0C819,538 812,555 805,564C798,573 786,577 771,577l-502,0C254,577 243,573 236,564C228,555 221,538 216,513l-23,0l0,258l23,0C221,746 228,730 236,721C243,712 254,707 269,707l502,0C786,707 797,712 805,721C813,730 819,747 824,771z"
   id="glyph1863" />
<glyph
   unicode="º"
   horiz-adv-x="1046"
   d="M522,1390C608,1390 680,1368 738,1324C807,1271 842,1196 842,1101C842,1012 807,940 738,887C681,843 609,821 523,821C436,821 364,843 307,887C238,940 203,1013 203,1106C203,1190 232,1258 291,1310C349,1362 426,1389 522,1390M522,1278C470,1278 427,1262 394,1230C361,1197 344,1156 344,1106C344,1055 361,1014 395,982C428,949 471,933 523,933C574,933 617,949 651,982C684,1014 701,1054 701,1103C701,1155 685,1197 652,1229C619,1261 575,1277 522,1278M850,771l0,-258l-24,0C821,538 814,555 807,564C800,573 788,577 773,577l-502,0C256,577 245,573 238,564C230,555 223,538 218,513l-23,0l0,258l23,0C223,746 230,730 238,721C245,712 256,707 271,707l502,0C788,707 799,712 807,721C815,730 821,747 826,771z"
   id="glyph1865" />
<glyph
   unicode="Ω"
   horiz-adv-x="1365"
   d="M56,0l0,239l298,0C276,286 212,341 162,404C87,497 50,613 50,752C50,938 115,1095 244,1223C363,1340 509,1399 680,1399C857,1399 1005,1339 1125,1220C1251,1095 1314,940 1314,753C1314,639 1290,541 1241,458C1192,375 1115,302 1010,239l298,0l0,-239l-548,0l0,221C835,261 894,311 935,371C1002,470 1036,581 1036,705C1036,832 1002,941 933,1030C868,1115 785,1158 685,1158C583,1158 498,1115 431,1030C363,944 329,835 329,703C329,592 352,496 399,415C445,334 514,269 605,221l0,-221z"
   id="glyph1867" />
<glyph
   unicode="æ"
   horiz-adv-x="2090"
   d="M953,280l-406,0l-77,-127C451,122 442,99 442,84C442,55 461,36 499,27l0,-27l-441,0l0,27C85,32 105,40 119,51C133,62 150,85 170,118l501,825C695,983 707,1013 707,1034C707,1057 688,1076 651,1092l0,28l1250,0C1922,1120 1939,1125 1950,1134C1961,1143 1969,1160 1976,1184l27,0l0,-332l-28,0C1969,876 1961,893 1950,903C1939,912 1922,917 1901,917l-680,0l0,-246l421,0C1663,671 1679,676 1691,686C1702,695 1711,712 1717,735l27,0l0,-324l-27,0C1710,435 1702,452 1691,462C1680,471 1663,476 1642,476l-421,0l0,-273l711,0C1953,203 1969,208 1980,218C1991,227 1999,244 2006,268l27,0l0,-332l-27,0C1999,-41 1991,-24 1980,-14C1969,-5 1953,0 1932,0l-1043,0l0,28C930,37 952,62 953,102M953,437l0,480l-33,0l-276,-480z"
   id="glyph1869" />
<glyph
   unicode="ø"
   horiz-adv-x="1460"
   d="M1002,1242l368,0l0,-24C1337,1218 1312,1211 1294,1197C1276,1182 1245,1145 1202,1085l-47,-64C1309,914 1386,760 1386,559C1386,370 1315,221 1173,112C1056,21 908,-24 729,-24C631,-24 534,-7 438,27l-16,-21C406,-16 398,-33 398,-46C398,-74 418,-92 458,-100l0,-23l-368,0l0,23C124,-91 151,-77 172,-59C192,-42 221,-8 259,43l42,58C245,147 202,191 171,234C106,325 73,433 73,559C73,748 144,898 287,1008C404,1099 553,1144 732,1144C831,1144 930,1126 1028,1090l17,24C1056,1129 1062,1145 1062,1160C1062,1173 1056,1185 1045,1196C1034,1207 1019,1214 1002,1218M574,217C627,198 678,188 727,188C845,188 940,225 1012,300C1079,369 1113,455 1113,560C1113,662 1079,749 1012,822M890,902C843,923 792,933 738,933C617,933 520,896 447,822C380,752 346,665 346,561C346,460 380,373 447,300z"
   id="glyph1871" />
<glyph
   unicode="¿"
   horiz-adv-x="1000"
   d="M787,385l172,-252l-26,-18l-8,4C910,126 899,130 891,130C876,130 847,116 805,89C742,48 687,19 638,2C589,-15 536,-24 479,-24C387,-24 310,-2 248,41C165,99 123,178 123,279C123,332 136,382 163,430C190,478 236,534 301,598C346,643 376,678 390,704C403,729 410,762 410,803C410,820 406,833 398,842C390,850 375,857 352,863l0,32l329,0l0,-32C654,854 637,843 628,830C619,816 611,785 604,738C597,695 587,662 574,637C561,612 533,573 492,521C455,474 430,438 417,413C404,387 397,360 397,332C397,289 411,254 440,228C468,201 506,188 553,188C624,188 684,213 734,264C757,288 769,311 769,333C769,340 766,352 760,367M500,1389C545,1389 584,1373 616,1341C648,1308 664,1269 664,1224C664,1179 648,1141 616,1109C584,1077 545,1061 500,1061C454,1061 415,1077 384,1109C352,1141 336,1180 336,1226C336,1271 352,1309 384,1341C416,1372 455,1388 500,1389z"
   id="glyph1873" />
<glyph
   unicode="¡"
   horiz-adv-x="774"
   d="M518,885l0,-32C491,846 473,838 466,829C459,820 455,804 455,780C455,766 456,751 458,735l73,-615C535,85 541,62 548,53C555,44 571,37 597,32l0,-32l-420,0l0,32C203,37 220,44 227,53C234,62 239,85 243,120l73,615C318,751 319,766 319,780C319,803 315,819 308,828C301,837 283,845 256,853l0,32M387,1389C432,1389 471,1373 503,1341C535,1308 551,1269 551,1222C551,1178 535,1140 503,1109C470,1077 432,1061 387,1061C342,1061 303,1077 271,1109C239,1141 223,1179 223,1224C223,1269 239,1308 271,1340C302,1372 341,1388 387,1389z"
   id="glyph1875" />
<glyph
   unicode="¬"
   horiz-adv-x="1024"
   d="M672,0l0,338l-604,0l0,254l887,0l0,-592z"
   id="glyph1877" />
<glyph
   unicode="√"
   horiz-adv-x="1365"
   d="M1365,1693l0,-228l-352,0l-386,-1465l-318,0l-130,535l-179,0l0,228l336,0l61,-229C407,497 423,401 444,246l15,0C478,365 497,468 516,553C535,638 564,757 604,908l208,785z"
   id="glyph1879" />
<glyph
   unicode="ƒ"
   horiz-adv-x="1461"
   d="M5,-55l153,257l24,-11C177,182 175,174 175,169C175,150 189,131 217,114C244,97 273,88 304,88C369,88 418,110 451,155C472,184 489,235 501,310l59,373l-89,0C450,683 434,678 422,669C410,660 399,643 388,619l-32,0l55,346l32,0C446,941 452,924 461,915C470,905 485,900 505,900l90,0l28,183C631,1133 646,1183 668,1234C689,1284 714,1325 741,1357C816,1443 936,1486 1101,1486C1162,1486 1210,1481 1243,1471C1276,1461 1315,1441 1358,1410C1365,1405 1372,1403 1377,1403C1391,1403 1407,1412 1424,1431l32,-16l-153,-256l-33,15C1280,1200 1285,1216 1285,1223C1285,1234 1267,1246 1231,1259C1195,1271 1161,1277 1129,1277C1096,1277 1063,1270 1032,1256C1000,1242 976,1224 959,1202C934,1169 916,1120 906,1055l-25,-155l185,0C1086,900 1102,905 1115,915C1127,924 1138,941 1148,965l33,0l-55,-346l-32,0C1091,643 1085,660 1076,669C1067,678 1052,683 1031,683l-185,0l-63,-400C770,201 756,143 743,109C730,74 707,41 676,8C593,-79 478,-122 330,-122C243,-122 170,-102 111,-61C94,-49 81,-43 74,-43C61,-43 45,-51 28,-66z"
   id="glyph1881" />
<glyph
   unicode="≈"
   horiz-adv-x="1024"
   d="M159,713l-142,100C45,880 74,932 103,969C162,1047 234,1086 317,1086C362,1086 436,1064 537,1019C625,980 684,961 715,961C744,961 769,970 792,987C815,1004 839,1033 864,1074l142,-100C973,899 942,842 911,804C853,734 785,699 707,699C683,699 658,703 632,711C605,719 561,736 499,763C403,804 339,824 307,824C279,824 254,816 232,799C210,782 186,754 159,713M159,281l-142,100C46,448 74,500 103,537C162,615 234,654 318,654C363,654 436,632 537,588C624,549 684,530 715,530C744,530 769,538 792,555C815,572 839,600 864,641l142,-100C973,466 942,409 911,371C853,301 785,266 707,266C683,266 658,270 633,278C607,286 562,303 499,330C402,371 338,392 307,392C256,392 207,355 159,281z"
   id="glyph1883" />
<glyph
   unicode="∆"
   horiz-adv-x="1320"
   d="M16,0l500,1365l285,0l503,-1365M367,239l580,0l-287,835z"
   id="glyph1885" />
<glyph
   unicode="«"
   horiz-adv-x="997"
   d="M847,983l-197,-403l197,-403l-173,0l-194,403l194,403M490,983l-196,-403l196,-403l-173,0l-194,403l194,403z"
   id="glyph1887" />
<glyph
   unicode="»"
   horiz-adv-x="997"
   d="M150,983l173,0l194,-403l-194,-403l-173,0l196,403M507,983l172,0l195,-403l-195,-403l-172,0l196,403z"
   id="glyph1889" />
<glyph
   unicode="…"
   horiz-adv-x="1884"
   d="M314,304C360,304 399,288 431,256C462,224 478,185 478,139C478,94 462,56 430,24C397,-8 359,-24 314,-24C269,-24 230,-8 198,25C166,57 150,96 150,141C150,186 166,224 198,256C229,287 268,303 314,304M942,304C988,304 1027,288 1059,256C1090,224 1106,185 1106,139C1106,94 1090,56 1058,24C1025,-8 987,-24 942,-24C897,-24 858,-8 826,25C794,57 778,96 778,141C778,186 794,224 826,256C857,287 896,303 942,304M1570,304C1616,304 1655,288 1687,256C1718,224 1734,185 1734,139C1734,94 1718,56 1686,24C1653,-8 1615,-24 1570,-24C1525,-24 1486,-8 1454,25C1422,57 1406,96 1406,141C1406,186 1422,224 1454,256C1485,287 1524,303 1570,304z"
   id="glyph1891" />
<glyph
   unicode="À"
   horiz-adv-x="1666"
   d="M1123,348l-620,0l-92,-192C398,129 392,108 392,93C392,64 414,43 459,32l0,-32l-452,0l0,32C34,37 54,47 68,60C82,73 98,99 116,138l502,1049C634,1220 642,1247 642,1267C642,1298 623,1320 584,1333l0,32l484,0l0,-32C1029,1322 1009,1302 1009,1274C1009,1255 1015,1233 1028,1208l520,-1052C1570,111 1589,81 1606,65C1623,48 1645,37 1673,32l0,-32l-502,0l0,32C1215,39 1237,60 1237,94C1237,108 1230,129 1217,156M1037,535l-221,486l-224,-486M543,1765l304,0l0,-27C828,1736 819,1730 819,1719C819,1715 820,1710 823,1704l66,-163C895,1526 901,1517 908,1512C915,1507 926,1505 942,1505l0,-27l-217,0l0,27C727,1505 729,1505 730,1505C743,1505 750,1510 750,1521C750,1527 748,1532 744,1537l-142,173C589,1728 569,1737 543,1738z"
   id="glyph1893" />
<glyph
   unicode="Ã"
   horiz-adv-x="1666"
   d="M1123,348l-620,0l-92,-192C398,129 392,108 392,93C392,64 414,43 459,32l0,-32l-452,0l0,32C34,37 54,47 68,60C82,73 98,99 116,138l502,1049C634,1220 642,1247 642,1267C642,1298 623,1320 584,1333l0,32l484,0l0,-32C1029,1322 1009,1302 1009,1274C1009,1255 1015,1233 1028,1208l520,-1052C1570,111 1589,81 1606,65C1623,48 1645,37 1673,32l0,-32l-502,0l0,32C1215,39 1237,60 1237,94C1237,108 1230,129 1217,156M1037,535l-221,486l-224,-486M1042,1749l145,-134l-16,-20C1152,1601 1139,1604 1134,1604C1125,1604 1117,1598 1108,1587C1063,1526 1016,1496 966,1496C939,1496 911,1502 881,1513l-148,57C718,1575 704,1578 689,1578C676,1578 663,1573 650,1562C637,1551 631,1539 631,1528C631,1520 636,1510 646,1497l-18,-14l-149,138l14,17C509,1633 520,1630 527,1630C541,1630 554,1638 565,1653C606,1706 656,1733 717,1733C738,1733 759,1729 782,1720l149,-59C948,1654 965,1651 982,1651C995,1651 1008,1656 1020,1667C1032,1678 1038,1689 1038,1701C1038,1710 1032,1721 1021,1734z"
   id="glyph1895" />
<glyph
   unicode="Õ"
   horiz-adv-x="1752"
   d="M873,1389C1111,1389 1300,1325 1439,1196C1586,1061 1660,887 1660,674C1660,543 1625,421 1554,308C1416,87 1190,-24 875,-24C639,-24 451,40 312,169C237,238 181,320 142,416C108,501 91,590 91,683C91,820 126,945 196,1058C330,1275 556,1385 873,1389M874,1158C744,1158 636,1119 549,1042C446,951 395,831 395,683C395,535 446,415 549,324C636,247 745,208 876,208C1007,208 1116,247 1202,324C1253,370 1293,426 1320,493C1344,552 1356,614 1356,677C1356,832 1305,953 1202,1042C1115,1118 1005,1157 874,1158M1099,1749l145,-134l-16,-20C1209,1601 1196,1604 1191,1604C1182,1604 1174,1598 1165,1587C1120,1526 1073,1496 1023,1496C996,1496 968,1502 938,1513l-148,57C775,1575 761,1578 746,1578C733,1578 720,1573 707,1562C694,1551 688,1539 688,1528C688,1520 693,1510 703,1497l-18,-14l-149,138l14,17C566,1633 577,1630 584,1630C598,1630 611,1638 622,1653C663,1706 713,1733 774,1733C795,1733 816,1729 839,1720l149,-59C1005,1654 1022,1651 1039,1651C1052,1651 1065,1656 1077,1667C1089,1678 1095,1689 1095,1701C1095,1710 1089,1721 1078,1734z"
   id="glyph1897" />
<glyph
   unicode="Œ"
   horiz-adv-x="2435"
   d="M1364,599l0,-374l878,0C2263,225 2278,230 2289,239C2299,248 2307,265 2314,289l32,0l0,-353l-32,0C2307,-40 2299,-23 2289,-14C2278,-5 2263,0 2242,0l-1176,0C1060,0 1042,-1 1013,-2C935,-6 883,-8 856,-8C635,-8 453,55 312,181C237,248 181,328 142,422C108,505 91,591 91,682C91,815 126,938 197,1049C278,1176 396,1266 551,1321C648,1356 753,1373 864,1373l202,-8l1152,0C2238,1365 2253,1370 2264,1379C2275,1388 2283,1405 2290,1430l32,0l0,-353l-32,0C2283,1101 2275,1118 2265,1127C2254,1136 2239,1140 2218,1140l-854,0l0,-324l553,0C1938,816 1953,821 1964,830C1975,839 1983,856 1990,880l32,0l0,-345l-32,0C1983,559 1975,576 1964,585C1953,594 1938,599 1917,599M1066,1140C1007,1147 951,1151 900,1151C737,1151 613,1109 527,1024C439,937 395,823 395,682C395,541 439,427 527,341C614,256 737,214 896,214C945,214 1001,218 1066,225z"
   id="glyph1899" />
<glyph
   unicode="œ"
   horiz-adv-x="2007"
   d="M1138,476l0,-273l710,0C1869,203 1885,208 1896,217C1907,226 1916,243 1923,268l27,0l0,-332l-27,0C1916,-40 1908,-23 1897,-14C1886,-5 1869,0 1848,0l-981,0C854,0 824,-2 775,-5C750,-7 725,-8 700,-8C529,-8 387,34 276,119C213,167 162,227 124,298C79,381 57,468 57,560C57,686 97,800 176,901C241,985 328,1046 437,1084C519,1113 607,1128 701,1128l166,-8l954,0C1842,1120 1859,1125 1870,1134C1881,1143 1889,1160 1896,1184l27,0l0,-332l-27,0C1889,877 1880,894 1869,903C1858,912 1842,917 1821,917l-683,0l0,-246l421,0C1580,671 1597,676 1608,685C1619,694 1627,711 1634,735l27,0l0,-324l-27,0C1627,435 1619,452 1608,462C1597,471 1580,476 1559,476M870,917C823,924 777,928 730,928C611,928 517,897 448,835C369,764 330,672 330,560C330,447 369,356 448,285C517,223 610,192 728,192C775,192 822,196 870,203z"
   id="glyph1901" />
<glyph
   unicode="–"
   horiz-adv-x="1577"
   d="M1489,730l0,-340l-32,0C1451,413 1443,430 1432,440C1421,449 1405,454 1385,454l-1193,0C171,454 156,449 145,440C134,431 126,414 119,390l-32,0l0,340l32,0C126,706 134,689 145,680C156,671 171,666 192,666l1193,0C1405,666 1421,671 1432,680C1443,689 1451,706 1457,730z"
   id="glyph1903" />
<glyph
   unicode="—"
   horiz-adv-x="1361"
   d="M1361,730l0,-340l-32,0C1322,413 1314,430 1303,440C1292,449 1277,454 1257,454l-1152,0C84,454 69,449 58,440C47,431 39,414 32,390l-32,0l0,340l32,0C39,706 47,689 58,680C69,671 84,666 105,666l1152,0C1277,666 1292,671 1303,680C1314,689 1322,706 1329,730z"
   id="glyph1905" />
<glyph
   unicode="“"
   horiz-adv-x="1106"
   d="M430,1325C376,1289 337,1254 313,1220C288,1186 271,1142 262,1088C293,1096 316,1100 332,1100C376,1100 411,1085 438,1054C465,1023 478,983 478,934C478,885 465,845 438,816C411,787 375,772 330,772C270,772 224,797 192,846C164,890 150,943 150,1006C150,1152 227,1280 382,1389M908,1325C854,1289 815,1254 791,1220C766,1186 749,1142 739,1088C770,1096 794,1100 810,1100C854,1100 889,1085 916,1055C943,1024 956,984 956,934C956,885 943,845 916,816C889,787 853,772 808,772C748,772 702,797 670,846C642,890 628,943 628,1006C628,1152 705,1280 860,1389z"
   id="glyph1907" />
<glyph
   unicode="”"
   horiz-adv-x="1106"
   d="M197,836C252,871 291,906 315,940C339,974 356,1018 366,1073C335,1065 311,1061 296,1061C252,1061 217,1076 190,1107C163,1138 150,1178 150,1227C150,1276 164,1316 191,1345C218,1374 253,1389 298,1389C352,1389 396,1368 429,1325C462,1282 478,1225 478,1155C478,1009 400,881 245,771M675,836C730,871 769,906 793,940C817,974 834,1018 844,1073C813,1065 789,1061 774,1061C730,1061 695,1076 668,1107C641,1138 628,1178 628,1227C628,1276 642,1316 669,1345C696,1374 731,1389 776,1389C830,1389 874,1368 907,1325C940,1282 956,1225 956,1155C956,1009 878,881 723,771z"
   id="glyph1909" />
<glyph
   unicode="‘"
   horiz-adv-x="628"
   d="M430,1325C376,1289 337,1254 313,1220C288,1186 271,1142 262,1088C293,1096 316,1100 332,1100C376,1100 411,1085 438,1054C465,1023 478,983 478,934C478,885 465,845 438,816C411,787 375,772 330,772C270,772 224,797 192,846C164,890 150,943 150,1006C150,1152 227,1280 382,1389z"
   id="glyph1911" />
<glyph
   unicode="’"
   horiz-adv-x="628"
   d="M197,836C252,871 291,906 315,940C339,974 356,1018 366,1073C335,1065 311,1061 296,1061C252,1061 217,1076 190,1107C163,1138 150,1178 150,1227C150,1276 164,1316 191,1345C218,1374 253,1389 298,1389C352,1389 396,1368 429,1325C462,1282 478,1225 478,1155C478,1009 400,881 245,771z"
   id="glyph1913" />
<glyph
   unicode="÷"
   horiz-adv-x="1570"
   d="M234,521l0,324l30,0C269,821 277,804 287,795C297,786 311,781 330,781l910,0C1259,781 1273,786 1283,795C1292,804 1300,821 1306,845l30,0l0,-324l-30,0C1300,545 1292,562 1283,571C1273,580 1259,585 1240,585l-910,0C311,585 296,580 287,571C277,562 269,545 263,521M785,427C831,427 870,411 902,379C933,347 949,308 949,262C949,217 933,179 901,147C868,115 830,99 785,99C740,99 701,115 669,148C637,180 621,219 621,264C621,309 637,347 669,379C700,410 739,426 785,427M785,1267C831,1267 870,1251 902,1219C933,1187 949,1148 949,1102C949,1057 933,1019 901,987C868,955 830,939 785,939C740,939 701,955 669,988C637,1020 621,1059 621,1104C621,1149 637,1187 669,1219C700,1250 739,1266 785,1267z"
   id="glyph1915" />
<glyph
   unicode="◊"
   horiz-adv-x="1365"
   d="M683,1419l532,-736l-532,-736l-532,736M683,1237l-404,-554l404,-555l403,555z"
   id="glyph1917" />
<glyph
   unicode="ÿ"
   horiz-adv-x="1226"
   d="M747,491l0,-389C747,81 752,66 761,55C770,44 787,34 811,27l0,-27l-396,0l0,27C439,34 456,43 465,54C474,65 479,81 479,102l0,389l-332,457C110,999 80,1035 58,1054C35,1073 9,1085 -22,1092l0,28l504,0l0,-28C439,1081 417,1060 417,1031C417,1016 433,987 464,943l163,-226l159,226C817,988 833,1017 833,1032C833,1060 812,1080 769,1092l-1,28l480,0l0,-28C1217,1085 1191,1073 1169,1054C1146,1035 1116,999 1079,948M412,1510C450,1510 482,1497 507,1472C532,1446 545,1414 545,1377C545,1342 532,1312 507,1287C482,1262 451,1249 414,1249C379,1249 348,1262 322,1287C297,1312 284,1342 284,1379C284,1415 296,1446 321,1471C346,1496 376,1509 412,1510M811,1510C848,1510 879,1497 904,1472C929,1446 942,1416 942,1382C942,1344 929,1312 904,1287C879,1262 847,1249 809,1249C774,1249 744,1262 719,1288C694,1313 681,1344 681,1380C681,1415 694,1446 719,1471C744,1496 774,1509 811,1510z"
   id="glyph1919" />
<glyph
   unicode="Ÿ"
   horiz-adv-x="1460"
   d="M879,571l0,-466C879,84 884,69 894,58C903,47 920,39 944,32l0,-32l-429,0l0,32C539,39 556,47 566,58C576,69 581,84 581,105l0,466l-441,621C102,1245 72,1281 51,1300C29,1318 3,1329 -27,1333l0,32l539,0l0,-32C467,1326 445,1305 445,1271C445,1259 459,1233 486,1192l246,-366l253,366C1012,1231 1026,1258 1026,1272C1026,1287 1020,1301 1008,1312C996,1323 980,1330 959,1333l0,32l528,0l0,-32C1457,1329 1431,1318 1410,1300C1388,1281 1358,1245 1320,1192M529,1742C567,1742 598,1729 623,1704C648,1678 661,1646 661,1608C661,1574 648,1544 623,1519C598,1494 567,1481 530,1481C495,1481 464,1494 438,1519C413,1544 400,1574 400,1611C400,1647 412,1678 437,1703C462,1728 492,1741 529,1742M928,1742C965,1742 996,1729 1021,1704C1046,1678 1059,1648 1059,1614C1059,1576 1046,1544 1021,1519C996,1494 964,1481 926,1481C891,1481 861,1494 836,1520C811,1545 798,1576 798,1612C798,1648 811,1679 836,1704C861,1729 891,1741 928,1742z"
   id="glyph1921" />
<glyph
   unicode="∕"
   horiz-adv-x="588"
   d="M862,1365l0,-32C829,1328 807,1320 794,1309C781,1297 754,1258 713,1192l-618,-1040C78,124 70,104 70,91C70,75 77,62 91,52C104,41 123,35 147,32l0,-32l-420,0l0,32C-240,38 -215,49 -198,64C-182,79 -156,117 -120,176l609,1016C509,1225 519,1249 519,1265C519,1281 512,1296 497,1309C482,1322 464,1330 442,1333l0,32z"
   id="glyph1923" />
<glyph
   unicode="€"
   horiz-adv-x="1461"
   d="M1356,96l-26,-18C1311,95 1296,104 1284,104C1274,104 1241,89 1184,58C1083,3 975,-24 860,-24C710,-24 581,17 474,98C371,175 299,281 256,416l-75,0C144,416 116,395 97,352l-32,0l45,266l32,0C147,575 167,553 204,553l22,0C220,596 217,639 217,681C217,712 218,739 220,762l-39,0C144,762 116,741 97,698l-32,0l45,266l32,0C147,921 167,899 204,899l39,0C280,1047 351,1165 456,1252C567,1343 701,1389 860,1389C973,1389 1081,1362 1182,1307C1239,1276 1272,1261 1282,1261C1294,1261 1309,1270 1328,1287l26,-18l-220,-315l-27,18C1108,983 1109,992 1109,999C1109,1016 1101,1034 1084,1054C1027,1122 953,1156 860,1157C713,1158 611,1072 554,899l344,0C935,899 962,921 980,964l33,0l-45,-266l-32,0C931,741 910,762 873,762l-348,0C522,733 520,706 520,681C520,640 524,597 532,553l306,0C875,553 902,575 920,618l33,0l-45,-266l-32,0C871,395 850,416 813,416l-240,0C634,276 730,207 860,208C953,209 1029,243 1086,312C1103,332 1111,350 1111,366C1111,373 1110,382 1109,393l27,18z"
   id="glyph1925" />
<glyph
   unicode="‹"
   horiz-adv-x="640"
   d="M490,983l-196,-403l196,-403l-173,0l-194,403l194,403z"
   id="glyph1927" />
<glyph
   unicode="›"
   horiz-adv-x="640"
   d="M150,983l173,0l194,-403l-194,-403l-173,0l196,403z"
   id="glyph1929" />
<glyph
   unicode=""
   horiz-adv-x="1841"
   d="M430,476l0,-374C430,81 435,66 444,55C453,44 470,34 494,27l0,-27l-396,0l0,28C121,34 138,43 148,54C157,65 162,81 162,102l0,916C162,1039 157,1054 148,1065C139,1076 122,1085 98,1092l0,28l1004,0C1123,1120 1140,1125 1151,1134C1162,1143 1170,1160 1177,1184l27,0l0,-332l-27,0C1170,876 1162,893 1151,903C1140,912 1123,917 1102,917l-672,0l0,-246l422,0C873,671 889,676 900,685C911,694 920,711 927,735l27,0l0,-324l-27,0C920,435 912,452 901,462C890,471 873,476 852,476M1678,1018l0,-916C1678,81 1683,65 1692,54C1701,43 1718,34 1742,27l0,-27l-396,0l0,28C1369,34 1386,43 1396,54C1405,65 1410,81 1410,102l0,916C1410,1039 1406,1054 1397,1065C1388,1076 1371,1085 1346,1092l0,28l396,0l0,-28C1718,1085 1701,1077 1692,1066C1683,1055 1678,1039 1678,1018z"
   id="glyph1931" />
<glyph
   unicode=""
   horiz-adv-x="2424"
   d="M430,476l0,-374C430,81 435,66 444,55C453,44 470,34 494,27l0,-27l-396,0l0,28C121,34 138,43 148,54C157,65 162,81 162,102l0,916C162,1039 157,1054 148,1065C139,1076 122,1085 98,1092l0,28l1004,0C1123,1120 1140,1125 1151,1134C1162,1143 1170,1160 1177,1184l27,0l0,-332l-27,0C1170,877 1161,894 1150,903C1139,912 1123,917 1102,917l-672,0l0,-246l422,0C873,671 889,676 900,685C911,694 920,711 927,735l27,0l0,-324l-27,0C920,435 912,452 901,462C890,471 873,476 852,476M1678,203l627,0C2326,203 2342,208 2353,217C2364,226 2373,243 2380,268l27,0l0,-332l-27,0C2373,-40 2365,-23 2354,-14C2343,-5 2326,0 2305,0l-959,0l0,28C1369,34 1386,43 1396,54C1405,65 1410,81 1410,102l0,916C1410,1039 1406,1054 1397,1065C1388,1076 1371,1085 1346,1092l0,28l396,0l0,-28C1718,1085 1701,1077 1692,1066C1683,1055 1678,1039 1678,1018z"
   id="glyph1933" />
<glyph
   unicode="‡"
   horiz-adv-x="1104"
   d="M640,1074l264,0C925,1074 940,1079 951,1088C962,1097 970,1114 977,1138l32,0l0,-316l-32,0C970,846 962,863 951,872C940,881 925,886 904,886l-264,0l10,-407l254,0C925,479 940,484 951,493C962,502 970,519 977,543l32,0l0,-316l-32,0C970,251 962,268 951,277C940,286 925,291 904,291l-254,0l31,-323C683,-55 688,-72 697,-81C705,-90 721,-98 745,-105l0,-32l-385,0l0,32C384,-98 400,-90 409,-81C417,-72 422,-55 424,-32l32,323l-228,0C193,291 169,287 158,280C146,272 136,254 128,227l-32,0l0,316l32,0C135,518 144,502 155,493C165,484 180,479 201,479l255,0l9,407l-264,0C180,886 165,881 154,872C143,863 135,846 128,822l-32,0l0,316l32,0C136,1111 146,1093 158,1086C169,1078 193,1074 228,1074l237,0l-41,323C421,1421 416,1438 408,1447C400,1456 384,1463 360,1470l0,32l385,0l0,-32C721,1463 705,1455 697,1446C688,1437 683,1420 681,1397z"
   id="glyph1935" />
<glyph
   unicode="∙"
   horiz-adv-x="628"
   d="M314,669C360,669 399,653 431,621C462,589 478,550 478,504C478,459 462,421 430,389C397,357 359,341 314,341C269,341 230,357 198,390C166,422 150,461 150,506C150,551 166,589 198,621C229,652 268,668 314,669z"
   id="glyph1937" />
<glyph
   unicode="‚"
   horiz-adv-x="628"
   d="M197,-250C252,-214 291,-179 315,-145C339,-111 356,-67 366,-13C334,-20 311,-24 296,-24C252,-24 217,-9 190,22C163,53 150,93 150,142C150,191 164,231 191,260C218,289 253,304 298,304C358,304 404,279 436,230C464,185 478,132 478,70C478,-77 400,-205 245,-314z"
   id="glyph1939" />
<glyph
   unicode="„"
   horiz-adv-x="1106"
   d="M197,-250C252,-214 291,-179 315,-145C339,-111 356,-67 366,-13C334,-20 311,-24 296,-24C252,-24 217,-9 190,22C163,53 150,93 150,142C150,191 164,231 191,260C218,289 253,304 298,304C358,304 404,279 436,230C464,185 478,132 478,70C478,-77 400,-205 245,-314M675,-250C730,-214 769,-179 793,-145C817,-111 834,-67 844,-13C812,-20 789,-24 774,-24C730,-24 695,-9 668,22C641,53 628,93 628,142C628,191 642,231 669,260C696,289 731,304 776,304C836,304 882,279 914,230C942,185 956,132 956,70C956,-76 878,-204 723,-314z"
   id="glyph1941" />
<glyph
   unicode="‰"
   horiz-adv-x="2644"
   d="M416,1377C513,1377 594,1348 658,1289C730,1223 766,1133 766,1019C766,911 730,824 658,758C594,699 514,670 417,670C320,670 240,699 176,758C104,825 68,913 68,1024C68,1136 104,1224 176,1289C240,1346 320,1376 416,1377M417,1234C365,1234 323,1215 290,1176C257,1137 241,1086 241,1023C241,961 257,911 290,872C323,833 365,813 417,813C468,813 511,833 544,872C577,911 593,960 593,1021C593,1085 577,1136 545,1175C513,1214 470,1233 417,1234M1391,695C1488,695 1569,666 1633,607C1705,541 1741,451 1741,337C1741,229 1705,142 1633,76C1569,17 1489,-12 1392,-12C1295,-12 1215,17 1151,76C1079,142 1043,231 1043,342C1043,454 1079,542 1151,607C1215,664 1295,694 1391,695M1392,552C1340,552 1298,533 1265,494C1232,455 1216,404 1216,341C1216,279 1232,229 1265,190C1298,151 1340,131 1392,131C1443,131 1486,151 1519,190C1552,229 1568,278 1568,339C1568,403 1552,454 1520,493C1488,532 1445,551 1392,552M1380,1192l-804,-1040C552,121 540,98 540,84C540,57 560,40 600,32l0,-32l-356,0l0,32C278,37 305,48 325,64C344,79 377,117 423,176l788,1016C1240,1229 1255,1256 1255,1273C1255,1302 1235,1322 1195,1333l0,32l355,0l0,-32C1516,1328 1491,1320 1476,1307C1460,1294 1428,1255 1380,1192M2225,695C2322,695 2403,666 2467,607C2539,541 2575,451 2575,337C2575,229 2539,142 2467,76C2403,17 2323,-12 2226,-12C2129,-12 2049,17 1985,76C1913,142 1877,231 1877,342C1877,454 1913,542 1985,607C2049,664 2129,694 2225,695M2226,552C2174,552 2132,533 2099,494C2066,455 2050,404 2050,341C2050,279 2066,229 2099,190C2132,151 2174,131 2226,131C2277,131 2320,151 2353,190C2386,229 2402,278 2402,339C2402,403 2386,454 2354,493C2322,532 2279,551 2226,552z"
   id="glyph1943" />
<glyph
   unicode="Â"
   horiz-adv-x="1666"
   d="M1123,348l-620,0l-92,-192C398,129 392,108 392,93C392,64 414,43 459,32l0,-32l-452,0l0,32C34,37 54,47 68,60C82,73 98,99 116,138l502,1049C634,1220 642,1247 642,1267C642,1298 623,1320 584,1333l0,32l484,0l0,-32C1029,1322 1009,1302 1009,1274C1009,1255 1015,1233 1028,1208l520,-1052C1570,111 1589,81 1606,65C1623,48 1645,37 1673,32l0,-32l-502,0l0,32C1215,39 1237,60 1237,94C1237,108 1230,129 1217,156M1037,535l-221,486l-224,-486M737,1478l-250,0l0,27C503,1506 513,1508 518,1511C523,1514 535,1526 556,1547l134,149C697,1704 701,1712 701,1721C701,1732 690,1738 668,1738l0,27l316,0l0,-27C964,1736 954,1730 954,1720C954,1713 959,1703 970,1692l150,-167C1131,1512 1146,1506 1165,1505l0,-27l-287,0l0,27C899,1506 909,1511 909,1520C909,1523 904,1530 893,1543l-84,103l-92,-106C711,1534 708,1528 708,1522C708,1512 718,1506 737,1505z"
   id="glyph1945" />
<glyph
   unicode="Ê"
   horiz-adv-x="1556"
   d="M485,599l0,-374l878,0C1383,225 1398,230 1409,239C1420,248 1428,265 1435,289l32,0l0,-353l-32,0C1428,-40 1420,-23 1409,-14C1398,-5 1383,0 1363,0l-1240,0l0,32C147,39 164,47 173,58C182,69 187,84 187,105l0,1155C187,1281 182,1296 173,1307C164,1318 147,1326 123,1333l0,32l1216,0C1359,1365 1374,1370 1385,1380C1396,1389 1404,1406 1411,1430l32,0l0,-353l-32,0C1404,1100 1396,1117 1385,1126C1374,1135 1359,1140 1339,1140l-854,0l0,-324l554,0C1059,816 1074,821 1085,830C1096,839 1104,856 1111,880l32,0l0,-345l-32,0C1104,558 1096,575 1085,585C1074,594 1059,599 1039,599M713,1478l-250,0l0,27C479,1506 489,1508 494,1511C499,1514 511,1526 532,1547l134,149C673,1704 677,1712 677,1721C677,1732 666,1738 644,1738l0,27l316,0l0,-27C940,1736 930,1730 930,1720C930,1713 935,1703 946,1692l150,-167C1107,1512 1122,1506 1141,1505l0,-27l-287,0l0,27C875,1506 885,1511 885,1520C885,1523 880,1530 869,1543l-84,103l-92,-106C687,1534 684,1528 684,1522C684,1512 694,1506 713,1505z"
   id="glyph1947" />
<glyph
   unicode="Á"
   horiz-adv-x="1666"
   d="M1123,348l-620,0l-92,-192C398,129 392,108 392,93C392,64 414,43 459,32l0,-32l-452,0l0,32C34,37 54,47 68,60C82,73 98,99 116,138l502,1049C634,1220 642,1247 642,1267C642,1298 623,1320 584,1333l0,32l484,0l0,-32C1029,1322 1009,1302 1009,1274C1009,1255 1015,1233 1028,1208l520,-1052C1570,111 1589,81 1606,65C1623,48 1645,37 1673,32l0,-32l-502,0l0,32C1215,39 1237,60 1237,94C1237,108 1230,129 1217,156M1037,535l-221,486l-224,-486M1108,1765l0,-27C1082,1737 1062,1728 1049,1710l-142,-173C903,1532 901,1527 901,1521C901,1510 908,1505 922,1505C923,1505 924,1505 926,1505l0,-27l-217,0l0,27C725,1505 736,1507 743,1512C750,1517 756,1526 762,1541l66,163C831,1710 832,1715 832,1719C832,1730 823,1736 804,1738l0,27z"
   id="glyph1949" />
<glyph
   unicode="Ë"
   horiz-adv-x="1556"
   d="M485,599l0,-374l878,0C1383,225 1398,230 1409,239C1420,248 1428,265 1435,289l32,0l0,-353l-32,0C1428,-40 1420,-23 1409,-14C1398,-5 1383,0 1363,0l-1240,0l0,32C147,39 164,47 173,58C182,69 187,84 187,105l0,1155C187,1281 182,1296 173,1307C164,1318 147,1326 123,1333l0,32l1216,0C1359,1365 1374,1370 1385,1380C1396,1389 1404,1406 1411,1430l32,0l0,-353l-32,0C1404,1100 1396,1117 1385,1126C1374,1135 1359,1140 1339,1140l-854,0l0,-324l554,0C1059,816 1074,821 1085,830C1096,839 1104,856 1111,880l32,0l0,-345l-32,0C1104,558 1096,575 1085,585C1074,594 1059,599 1039,599M601,1742C639,1742 671,1729 696,1704C721,1678 734,1646 734,1608C734,1574 721,1544 696,1519C671,1494 640,1481 603,1481C568,1481 537,1494 511,1519C486,1544 473,1574 473,1611C473,1647 485,1678 510,1703C535,1728 565,1741 601,1742M1000,1742C1037,1742 1068,1729 1093,1704C1118,1678 1131,1648 1131,1614C1131,1576 1118,1544 1093,1519C1068,1494 1036,1481 998,1481C963,1481 933,1494 908,1520C883,1545 870,1576 870,1612C870,1647 883,1678 908,1703C933,1728 963,1741 1000,1742z"
   id="glyph1951" />
<glyph
   unicode="È"
   horiz-adv-x="1556"
   d="M485,599l0,-374l878,0C1383,225 1398,230 1409,239C1420,248 1428,265 1435,289l32,0l0,-353l-32,0C1428,-40 1420,-23 1409,-14C1398,-5 1383,0 1363,0l-1240,0l0,32C147,39 164,47 173,58C182,69 187,84 187,105l0,1155C187,1281 182,1296 173,1307C164,1318 147,1326 123,1333l0,32l1216,0C1359,1365 1374,1370 1385,1380C1396,1389 1404,1406 1411,1430l32,0l0,-353l-32,0C1404,1100 1396,1117 1385,1126C1374,1135 1359,1140 1339,1140l-854,0l0,-324l554,0C1059,816 1074,821 1085,830C1096,839 1104,856 1111,880l32,0l0,-345l-32,0C1104,558 1096,575 1085,585C1074,594 1059,599 1039,599M534,1765l304,0l0,-27C819,1736 810,1730 810,1719C810,1715 811,1710 814,1704l66,-163C886,1526 892,1517 899,1512C906,1507 917,1505 933,1505l0,-27l-217,0l0,27C718,1505 720,1505 721,1505C734,1505 741,1510 741,1521C741,1527 739,1532 735,1537l-142,173C580,1728 560,1737 534,1738z"
   id="glyph1953" />
<glyph
   unicode="Í"
   horiz-adv-x="672"
   d="M187,105l0,1156C187,1281 182,1296 173,1307C164,1318 147,1326 123,1333l0,32l426,0l0,-32C525,1327 508,1319 499,1308C490,1297 485,1281 485,1261l0,-1156C485,84 490,69 500,58C509,47 526,38 549,32l0,-32l-426,0l0,32C147,39 164,47 173,58C182,69 187,84 187,105M619,1765l0,-27C593,1737 573,1728 560,1710l-142,-173C414,1532 412,1527 412,1521C412,1510 419,1505 433,1505C434,1505 435,1505 437,1505l0,-27l-217,0l0,27C236,1505 247,1507 254,1512C261,1517 267,1526 273,1541l66,163C342,1710 343,1715 343,1719C343,1730 334,1736 315,1738l0,27z"
   id="glyph1955" />
<glyph
   unicode="Î"
   horiz-adv-x="671"
   d="M187,105l0,1156C187,1281 182,1296 173,1307C164,1318 147,1326 123,1333l0,32l426,0l0,-32C525,1327 508,1319 499,1308C490,1297 485,1281 485,1261l0,-1156C485,84 490,69 500,58C509,47 526,38 549,32l0,-32l-426,0l0,32C147,39 164,47 173,58C182,69 187,84 187,105M253,1478l-250,0l0,27C19,1506 29,1508 34,1511C39,1514 51,1526 72,1547l134,149C213,1704 217,1712 217,1721C217,1732 206,1738 184,1738l0,27l316,0l0,-27C480,1736 470,1730 470,1720C470,1713 475,1703 486,1692l150,-167C647,1512 662,1506 681,1505l0,-27l-287,0l0,27C415,1506 425,1511 425,1520C425,1523 420,1530 409,1543l-84,103l-92,-106C227,1534 224,1528 224,1522C224,1512 234,1506 253,1505z"
   id="glyph1957" />
<glyph
   unicode="Ï"
   horiz-adv-x="671"
   d="M187,105l0,1156C187,1281 182,1296 173,1307C164,1318 147,1326 123,1333l0,32l426,0l0,-32C525,1327 508,1319 499,1308C490,1297 485,1281 485,1261l0,-1156C485,84 490,69 500,58C509,47 526,38 549,32l0,-32l-426,0l0,32C147,39 164,47 173,58C182,69 187,84 187,105M169,1742C207,1742 239,1729 264,1704C289,1678 302,1646 302,1608C302,1574 289,1544 264,1519C239,1494 208,1481 171,1481C136,1481 105,1494 79,1519C54,1544 41,1574 41,1611C41,1647 53,1678 78,1703C103,1728 133,1741 169,1742M500,1742C537,1742 568,1729 593,1704C618,1678 631,1648 631,1614C631,1576 618,1544 593,1519C568,1494 536,1481 497,1481C462,1481 433,1494 408,1520C383,1545 370,1576 370,1612C370,1647 383,1678 408,1703C433,1728 463,1741 500,1742z"
   id="glyph1959" />
<glyph
   unicode="Ì"
   horiz-adv-x="672"
   d="M187,105l0,1156C187,1281 182,1296 173,1307C164,1318 147,1326 123,1333l0,32l426,0l0,-32C525,1327 508,1319 499,1308C490,1297 485,1281 485,1261l0,-1156C485,84 490,69 500,58C509,47 526,38 549,32l0,-32l-426,0l0,32C147,39 164,47 173,58C182,69 187,84 187,105M52,1765l304,0l0,-27C337,1736 328,1730 328,1719C328,1715 329,1710 332,1704l66,-163C404,1526 410,1517 417,1512C424,1507 435,1505 451,1505l0,-27l-217,0l0,27C236,1505 238,1505 239,1505C252,1505 259,1510 259,1521C259,1527 257,1532 253,1537l-142,173C98,1728 78,1737 52,1738z"
   id="glyph1961" />
<glyph
   unicode="Ó"
   horiz-adv-x="1752"
   d="M873,1389C1111,1389 1300,1325 1439,1196C1586,1061 1660,887 1660,674C1660,543 1625,421 1554,308C1416,87 1190,-24 875,-24C639,-24 451,40 312,169C237,238 181,320 142,416C108,501 91,590 91,683C91,820 126,945 196,1058C330,1275 556,1385 873,1389M874,1158C744,1158 636,1119 549,1042C446,951 395,831 395,683C395,535 446,415 549,324C636,247 745,208 876,208C1007,208 1116,247 1202,324C1253,370 1293,426 1320,493C1344,552 1356,614 1356,677C1356,832 1305,953 1202,1042C1115,1118 1005,1157 874,1158M1150,1765l0,-27C1124,1737 1104,1728 1091,1710l-142,-173C945,1532 943,1527 943,1521C943,1510 950,1505 964,1505C965,1505 966,1505 968,1505l0,-27l-217,0l0,27C767,1505 778,1507 785,1512C792,1517 798,1526 804,1541l66,163C873,1710 874,1715 874,1719C874,1730 865,1736 846,1738l0,27z"
   id="glyph1963" />
<glyph
   unicode="Ô"
   horiz-adv-x="1752"
   d="M873,1389C1111,1389 1300,1325 1439,1196C1586,1061 1660,887 1660,674C1660,543 1625,421 1554,308C1416,87 1190,-24 875,-24C639,-24 451,40 312,169C237,238 181,320 142,416C108,501 91,590 91,683C91,820 126,945 196,1058C330,1275 556,1385 873,1389M874,1158C744,1158 636,1119 549,1042C446,951 395,831 395,683C395,535 446,415 549,324C636,247 745,208 876,208C1007,208 1116,247 1202,324C1253,370 1293,426 1320,493C1344,552 1356,614 1356,677C1356,832 1305,953 1202,1042C1115,1118 1005,1157 874,1158M787,1478l-250,0l0,27C553,1506 563,1508 568,1511C573,1514 585,1526 606,1547l134,149C747,1704 751,1712 751,1721C751,1732 740,1738 718,1738l0,27l316,0l0,-27C1014,1736 1004,1730 1004,1720C1004,1713 1009,1703 1020,1692l150,-167C1181,1512 1196,1506 1215,1505l0,-27l-287,0l0,27C949,1506 959,1511 959,1520C959,1523 954,1530 943,1543l-84,103l-92,-106C761,1534 758,1528 758,1522C758,1512 768,1506 787,1505z"
   id="glyph1965" />
<glyph
   unicode="Ò"
   horiz-adv-x="1752"
   d="M873,1389C1111,1389 1300,1325 1439,1196C1586,1061 1660,887 1660,674C1660,543 1625,421 1554,308C1416,87 1190,-24 875,-24C639,-24 451,40 312,169C237,238 181,320 142,416C108,501 91,590 91,683C91,820 126,945 196,1058C330,1275 556,1385 873,1389M874,1158C744,1158 636,1119 549,1042C446,951 395,831 395,683C395,535 446,415 549,324C636,247 745,208 876,208C1007,208 1116,247 1202,324C1253,370 1293,426 1320,493C1344,552 1356,614 1356,677C1356,832 1305,953 1202,1042C1115,1118 1005,1157 874,1158M608,1765l304,0l0,-27C893,1736 884,1730 884,1719C884,1715 885,1710 888,1704l66,-163C960,1526 966,1517 973,1512C980,1507 991,1505 1007,1505l0,-27l-217,0l0,27C792,1505 794,1505 795,1505C808,1505 815,1510 815,1521C815,1527 813,1532 809,1537l-142,173C654,1728 634,1737 608,1738z"
   id="glyph1967" />
<glyph
   unicode="Ú"
   horiz-adv-x="1671"
   d="M1512,1260l0,-765C1512,350 1485,242 1432,170C1336,41 1138,-24 837,-24C620,-24 453,11 338,81C271,122 224,177 198,247C173,316 160,399 160,495l0,765C160,1281 155,1296 146,1307C137,1318 120,1326 96,1333l0,32l427,0l0,-32C499,1327 482,1319 473,1308C463,1297 458,1281 458,1260l0,-681C458,500 462,442 471,405C480,367 496,335 520,310C584,242 693,208 848,208C1003,208 1113,242 1177,310C1200,335 1216,367 1225,405C1234,442 1238,500 1238,579l0,681C1238,1281 1233,1296 1224,1307C1215,1318 1198,1326 1174,1333l0,32l402,0l0,-32C1552,1326 1535,1318 1526,1307C1517,1296 1512,1281 1512,1260M1110,1765l0,-27C1084,1737 1064,1728 1051,1710l-142,-173C905,1532 903,1527 903,1521C903,1510 910,1505 924,1505C925,1505 926,1505 928,1505l0,-27l-217,0l0,27C727,1505 738,1507 745,1512C752,1517 758,1526 764,1541l66,163C833,1710 834,1715 834,1719C834,1730 825,1736 806,1738l0,27z"
   id="glyph1969" />
<glyph
   unicode="Û"
   horiz-adv-x="1671"
   d="M1512,1260l0,-765C1512,350 1485,242 1432,170C1336,41 1138,-24 837,-24C620,-24 453,11 338,81C271,122 224,177 198,247C173,316 160,399 160,495l0,765C160,1281 155,1296 146,1307C137,1318 120,1326 96,1333l0,32l427,0l0,-32C499,1327 482,1319 473,1308C463,1297 458,1281 458,1260l0,-681C458,500 462,442 471,405C480,367 496,335 520,310C584,242 693,208 848,208C1003,208 1113,242 1177,310C1200,335 1216,367 1225,405C1234,442 1238,500 1238,579l0,681C1238,1281 1233,1296 1224,1307C1215,1318 1198,1326 1174,1333l0,32l402,0l0,-32C1552,1326 1535,1318 1526,1307C1517,1296 1512,1281 1512,1260M754,1478l-250,0l0,27C520,1506 530,1508 535,1511C540,1514 552,1526 573,1547l134,149C714,1704 718,1712 718,1721C718,1732 707,1738 685,1738l0,27l316,0l0,-27C981,1736 971,1730 971,1720C971,1713 976,1703 987,1692l150,-167C1148,1512 1163,1506 1182,1505l0,-27l-287,0l0,27C916,1506 926,1511 926,1520C926,1523 921,1530 910,1543l-84,103l-92,-106C728,1534 725,1528 725,1522C725,1512 735,1506 754,1505z"
   id="glyph1971" />
<glyph
   unicode="Ù"
   horiz-adv-x="1671"
   d="M1512,1260l0,-765C1512,350 1485,242 1432,170C1336,41 1138,-24 837,-24C620,-24 453,11 338,81C271,122 224,177 198,247C173,316 160,399 160,495l0,765C160,1281 155,1296 146,1307C137,1318 120,1326 96,1333l0,32l427,0l0,-32C499,1327 482,1319 473,1308C463,1297 458,1281 458,1260l0,-681C458,500 462,442 471,405C480,367 496,335 520,310C584,242 693,208 848,208C1003,208 1113,242 1177,310C1200,335 1216,367 1225,405C1234,442 1238,500 1238,579l0,681C1238,1281 1233,1296 1224,1307C1215,1318 1198,1326 1174,1333l0,32l402,0l0,-32C1552,1326 1535,1318 1526,1307C1517,1296 1512,1281 1512,1260M575,1765l304,0l0,-27C860,1736 851,1730 851,1719C851,1715 852,1710 855,1704l66,-163C927,1526 933,1517 940,1512C947,1507 958,1505 974,1505l0,-27l-217,0l0,27C759,1505 761,1505 762,1505C775,1505 782,1510 782,1521C782,1527 780,1532 776,1537l-142,173C621,1728 601,1737 575,1738z"
   id="glyph1973" />
<glyph
   unicode="ı"
   horiz-adv-x="593"
   d="M430,1018l0,-916C430,81 435,66 444,55C453,44 470,34 494,27l0,-27l-396,0l0,28C121,34 138,43 148,54C157,65 162,81 162,102l0,916C162,1039 157,1054 148,1065C139,1076 122,1085 98,1092l0,28l396,0l0,-28C470,1085 453,1077 444,1066C435,1055 430,1039 430,1018z"
   id="glyph1975" />
<glyph
   unicode="ˆ"
   horiz-adv-x="1024"
   d="M423,1246l-250,0l0,27C189,1274 199,1276 204,1279C209,1282 221,1294 242,1315l134,149C383,1472 387,1480 387,1489C387,1500 376,1506 354,1506l0,27l316,0l0,-27C650,1504 640,1498 640,1488C640,1481 645,1471 656,1460l150,-167C817,1280 832,1274 851,1273l0,-27l-287,0l0,27C585,1275 595,1280 595,1288C595,1291 590,1298 579,1311l-84,103l-92,-106C397,1302 394,1296 394,1290C394,1280 404,1274 423,1273z"
   id="glyph1977" />
<glyph
   unicode="˜"
   horiz-adv-x="1024"
   d="M721,1517l145,-134l-16,-20C831,1369 818,1372 813,1372C804,1372 796,1366 787,1355C742,1294 695,1263 645,1263C619,1263 591,1269 560,1281l-148,57C399,1343 384,1345 368,1345C355,1345 342,1340 329,1329C316,1318 310,1306 310,1295C310,1287 315,1277 325,1265l-18,-15l-149,139l14,17C187,1401 199,1398 206,1398C220,1398 233,1405 244,1420C285,1473 336,1500 396,1500C418,1500 440,1496 461,1487l149,-58C629,1422 646,1418 661,1418C674,1418 687,1423 699,1434C711,1445 717,1456 717,1468C717,1477 711,1488 700,1501z"
   id="glyph1979" />
<glyph
   unicode="ˉ"
   horiz-adv-x="1024"
   d="M819,1503l0,-262l-27,0C785,1262 776,1277 766,1285C755,1293 740,1297 719,1297l-414,0C285,1297 270,1293 260,1286C249,1278 240,1263 232,1241l-27,0l0,262l27,0C240,1482 249,1468 260,1460C270,1451 285,1447 305,1447l414,0C738,1447 754,1451 765,1460C776,1468 785,1482 792,1503z"
   id="glyph1981" />
<glyph
   unicode="˘"
   horiz-adv-x="1024"
   d="M194,1504l0,25l210,0l0,-25C391,1504 383,1503 380,1501C377,1499 375,1494 375,1486C375,1458 389,1434 416,1414C443,1393 475,1383 512,1383C549,1383 582,1393 609,1414C636,1434 649,1458 649,1486C649,1494 647,1499 644,1501C641,1503 633,1504 620,1504l0,25l210,0l0,-25C812,1503 803,1496 802,1482C800,1437 786,1396 760,1359C707,1281 624,1242 512,1242C400,1242 317,1281 264,1359C238,1397 224,1438 222,1482C221,1496 212,1503 194,1504z"
   id="glyph1983" />
<glyph
   unicode="˙"
   horiz-adv-x="1024"
   d="M510,1510C548,1510 580,1497 605,1472C630,1446 643,1414 643,1377C643,1342 630,1312 605,1287C580,1262 549,1249 512,1249C477,1249 446,1262 420,1287C395,1312 382,1342 382,1379C382,1415 394,1446 419,1471C444,1496 474,1509 510,1510z"
   id="glyph1985" />
<glyph
   unicode="˚"
   horiz-adv-x="1024"
   d="M511,1581C576,1581 630,1563 674,1526C719,1489 741,1444 741,1392C741,1339 719,1294 674,1259C628,1223 574,1205 512,1205C449,1205 395,1223 350,1260C305,1297 283,1342 283,1394C283,1447 305,1491 349,1527C392,1562 446,1580 511,1581M512,1477C483,1477 459,1469 440,1454C421,1438 411,1418 411,1393C411,1370 421,1350 441,1334C460,1317 484,1309 512,1309C539,1309 563,1317 583,1334C603,1350 613,1369 613,1392C613,1417 604,1437 585,1453C566,1469 542,1477 512,1477z"
   id="glyph1987" />
<glyph
   unicode="¸"
   horiz-adv-x="1024"
   d="M378,-224l53,99C439,-110 445,-102 448,-99C451,-97 458,-96 469,-96C554,-96 619,-110 665,-137C711,-164 734,-203 734,-253C734,-301 714,-340 675,-371C633,-404 572,-420 492,-420C413,-420 346,-411 290,-392l23,47C350,-356 384,-361 415,-361C458,-361 493,-353 518,-338C543,-323 556,-303 556,-277C556,-258 549,-241 535,-227C521,-214 504,-207 484,-207C454,-207 429,-219 408,-242z"
   id="glyph1989" />
<glyph
   unicode="˝"
   horiz-adv-x="1024"
   d="M622,1533l0,-27C596,1505 576,1496 563,1479l-142,-174C417,1300 415,1295 415,1289C415,1278 422,1273 436,1273C437,1273 438,1273 440,1273l0,-27l-208,0l0,27C248,1273 259,1275 266,1280C273,1285 279,1294 285,1309l66,163C354,1479 356,1484 356,1487C357,1498 347,1504 327,1506l0,27M997,1533l0,-27C971,1505 951,1496 938,1479l-141,-174C793,1300 791,1295 791,1289C791,1278 798,1273 812,1273C813,1273 814,1273 816,1273l0,-27l-208,0l0,27C623,1273 634,1275 641,1280C648,1285 654,1294 660,1309l67,163C730,1479 731,1484 731,1487C731,1498 721,1504 702,1506l0,27z"
   id="glyph1991" />
<glyph
   unicode="˛"
   horiz-adv-x="1024"
   d="M927,0l128,0C980,-57 943,-115 943,-173C943,-204 955,-229 978,-247C1001,-266 1033,-275 1073,-275C1089,-275 1113,-271 1146,-264l16,-42C1106,-323 1051,-332 997,-332C926,-332 872,-321 835,-299C788,-271 764,-231 764,-178C764,-130 785,-91 827,-60C845,-46 878,-26 927,0z"
   id="glyph1993" />
<glyph
   unicode="ˇ"
   horiz-adv-x="1024"
   d="M601,1533l250,0l0,-27C835,1505 825,1504 820,1501C815,1498 802,1485 782,1464l-134,-149C641,1307 637,1299 637,1290C637,1279 648,1273 670,1273l0,-27l-316,0l0,27C374,1275 384,1281 384,1291C384,1298 379,1308 368,1320l-150,166C207,1499 192,1505 173,1506l0,27l287,0l0,-27C439,1504 429,1499 429,1491C429,1488 434,1481 445,1468l84,-103l93,106C627,1477 630,1483 630,1489C630,1499 620,1505 601,1506z"
   id="glyph1995" />
<glyph
   unicode="¦"
   horiz-adv-x="1024"
   d="M366,1365l292,0l0,-716l-292,0M366,314l292,0l0,-655l-292,0z"
   id="glyph1997" />
<glyph
   unicode="­"
   horiz-adv-x="455"
   d="M455,733l0,-346l-32,0C416,411 408,428 397,437C386,446 371,451 350,451l-246,0C84,451 69,446 58,437C47,427 38,410 32,387l-32,0l0,346l32,0C38,709 47,692 58,683C69,673 84,668 104,668l246,0C371,668 386,673 397,682C408,691 416,708 423,733z"
   id="glyph1999" />
<glyph
   unicode="¯"
   horiz-adv-x="1024"
   d="M0,1659l1024,0l0,-174l-1024,0z"
   id="glyph2001" />
<glyph
   unicode="²"
   horiz-adv-x="969"
   d="M313,705l520,0C846,705 855,708 860,713C865,718 870,728 875,743l32,0l0,-234l-32,0C870,524 865,534 860,539C855,544 846,546 833,546l-680,0C132,546 118,544 112,540C105,536 100,526 97,509l-33,0C63,532 63,546 63,552C63,635 84,704 126,759C155,796 188,827 227,852C265,877 323,905 400,938l108,45C557,1004 593,1026 615,1048C636,1070 647,1096 647,1126C647,1194 598,1228 499,1228C438,1228 381,1214 328,1187C279,1162 255,1136 255,1110C255,1105 259,1092 266,1072l-22,-21l-180,179l24,20C105,1242 118,1238 125,1238C133,1238 148,1247 170,1264C265,1341 382,1379 521,1379C622,1379 703,1356 764,1310C825,1263 856,1201 856,1123C856,1061 837,1008 798,963C759,918 697,879 613,844l-99,-41C508,800 485,791 444,776C375,751 332,727 313,705z"
   id="glyph2003" />
<glyph
   unicode="³"
   horiz-adv-x="969"
   d="M771,977C861,944 906,884 906,798C906,708 863,640 778,594C703,553 611,533 501,533C384,533 277,554 182,597C143,614 118,623 107,623C98,623 84,615 65,599l-29,14l108,229l31,-12C172,823 171,818 171,814C171,781 205,751 272,724C339,697 415,684 498,684C561,684 611,694 648,715C684,735 702,762 702,797C702,869 637,905 507,905C465,905 437,902 423,897C408,892 399,881 395,864l-32,0l0,211l32,0C400,1056 409,1045 422,1040C434,1035 461,1032 504,1032C560,1032 604,1041 636,1058C668,1075 684,1099 684,1130C684,1161 668,1186 637,1203C605,1220 559,1228 500,1228C435,1228 375,1218 318,1197C261,1176 232,1153 232,1129C232,1122 235,1112 242,1100l-26,-19l-156,177l25,19C102,1270 114,1266 121,1266C129,1266 139,1270 152,1278C261,1345 382,1379 515,1379C608,1379 687,1362 752,1328C832,1286 872,1224 872,1141C872,1070 838,1016 771,977z"
   id="glyph2005" />
<glyph
   unicode="¹"
   horiz-adv-x="969"
   d="M293,1061l0,228l32,0l5,-14C334,1261 342,1254 353,1254C356,1254 362,1255 369,1257l50,11l0,29C419,1308 416,1316 411,1321C405,1326 394,1331 378,1334l0,31l281,0l0,-31C643,1331 632,1327 627,1322C621,1317 618,1308 618,1297l0,-682C618,604 621,596 627,591C632,586 643,581 659,577l0,-31l-281,0l0,31C395,581 406,586 411,591C416,596 419,604 419,615l0,501l-51,-11C354,1102 345,1097 340,1092C335,1087 330,1076 325,1061z"
   id="glyph2007" />
<glyph
   unicode="¼"
   horiz-adv-x="2526"
   d="M293,1061l0,228l32,0l5,-14C334,1261 342,1254 353,1254C356,1254 362,1255 369,1257l50,11l0,29C419,1308 416,1316 411,1321C405,1326 394,1331 378,1334l0,31l281,0l0,-31C643,1331 632,1327 627,1322C621,1317 618,1308 618,1297l0,-682C618,604 621,596 627,591C632,586 643,581 659,577l0,-31l-281,0l0,31C395,581 406,586 411,591C416,596 419,604 419,615l0,501l-51,-11C354,1102 345,1097 340,1092C335,1087 330,1076 325,1061M1832,1365l0,-32C1799,1328 1777,1320 1764,1309C1751,1297 1724,1258 1683,1192l-618,-1040C1048,124 1040,104 1040,91C1040,75 1047,62 1061,52C1074,41 1093,35 1117,32l0,-32l-420,0l0,32C730,37 755,48 772,64C788,79 814,117 850,176l609,1016C1479,1225 1489,1249 1489,1265C1489,1281 1482,1296 1467,1309C1452,1322 1434,1330 1412,1333l0,32M2171,136l-453,0C1694,136 1679,134 1672,130C1665,126 1660,115 1657,98l-32,0l0,180l436,452C2079,749 2088,761 2088,768C2088,778 2077,784 2055,787l0,32l356,0l0,-31C2395,784 2384,780 2379,775C2373,770 2370,762 2370,751l0,-469l42,0C2424,282 2433,285 2438,290C2443,295 2448,305 2453,320l32,0l0,-222l-32,0C2448,113 2443,124 2438,129C2433,134 2424,136 2412,136l-42,0l0,-67C2370,58 2373,50 2379,45C2384,40 2395,35 2411,31l0,-31l-281,0l0,31C2147,35 2158,40 2163,45C2168,50 2171,58 2171,69M2171,282l0,330l-314,-330z"
   id="glyph2009" />
<glyph
   unicode="½"
   horiz-adv-x="2527"
   d="M293,1061l0,228l32,0l5,-14C335,1261 342,1254 353,1254C356,1254 362,1255 369,1257l50,11l0,29C419,1308 416,1316 411,1321C405,1326 394,1330 378,1334l0,31l281,0l0,-31C642,1331 631,1327 626,1322C621,1317 618,1308 618,1297l0,-682C618,604 621,596 627,591C632,586 643,581 659,577l0,-31l-281,0l0,31C395,581 406,586 411,591C416,596 419,604 419,615l0,501l-51,-11C354,1102 345,1098 340,1093C335,1088 330,1077 325,1061M1832,1365l0,-32C1799,1328 1777,1320 1764,1309C1751,1297 1724,1258 1683,1192l-618,-1040C1048,124 1040,104 1040,91C1040,75 1047,62 1061,52C1074,41 1093,35 1117,32l0,-32l-420,0l0,32C730,37 755,48 772,64C788,79 814,117 850,176l609,1016C1479,1225 1489,1249 1489,1265C1489,1281 1482,1296 1467,1309C1452,1322 1434,1330 1412,1333l0,32M1870,159l520,0C2403,159 2412,162 2417,167C2422,172 2427,181 2432,196l32,0l0,-234l-32,0C2427,-23 2422,-12 2417,-7C2412,-2 2403,0 2390,0l-680,0C1689,0 1675,-2 1669,-6C1662,-10 1657,-21 1654,-38l-33,0C1620,-15 1620,0 1620,6C1620,89 1641,157 1684,212C1712,249 1745,280 1783,305C1821,330 1879,358 1957,391l108,46C2114,458 2150,479 2172,502C2193,524 2204,550 2204,579C2204,648 2155,682 2056,682C1995,682 1939,668 1886,641C1837,616 1812,590 1812,563C1812,558 1816,546 1823,525l-22,-21l-180,179l24,21C1663,696 1675,692 1682,692C1690,692 1705,701 1727,719C1822,795 1939,833 2078,833C2179,833 2260,810 2321,764C2382,717 2413,655 2413,576C2413,514 2394,461 2355,416C2316,371 2254,332 2170,297l-99,-41C2068,255 2044,246 2001,230C1932,203 1888,180 1870,159z"
   id="glyph2011" />
<glyph
   unicode="¾"
   horiz-adv-x="2526"
   d="M771,977C861,944 906,884 906,798C906,708 863,640 778,594C703,553 611,533 501,533C384,533 277,554 182,597C143,614 118,623 107,623C98,623 84,615 65,599l-29,14l108,229l31,-12C172,823 171,818 171,814C171,781 205,751 272,724C339,697 415,684 498,684C561,684 611,694 648,715C684,735 702,762 702,797C702,869 637,905 507,905C465,905 437,902 423,897C408,892 399,881 395,864l-32,0l0,211l32,0C400,1056 409,1045 422,1040C434,1035 461,1032 504,1032C561,1032 605,1041 637,1058C668,1075 684,1099 684,1130C684,1161 668,1186 637,1203C605,1220 559,1228 500,1228C435,1228 375,1218 318,1197C261,1176 232,1153 232,1129C232,1122 235,1112 242,1100l-26,-19l-156,177l25,19C102,1270 114,1266 121,1266C129,1266 139,1270 152,1278C259,1345 380,1379 515,1379C608,1379 687,1362 752,1328C832,1286 872,1224 872,1141C872,1070 838,1016 771,977M1832,1365l0,-32C1799,1328 1776,1320 1764,1309C1752,1297 1725,1258 1683,1192l-618,-1040C1048,124 1040,104 1040,91C1040,75 1047,62 1061,52C1074,41 1093,35 1117,32l0,-32l-420,0l0,32C730,38 755,49 772,64C788,79 814,117 850,176l609,1016C1479,1225 1489,1249 1489,1265C1489,1281 1482,1296 1467,1309C1452,1322 1434,1330 1412,1333l0,32M2171,136l-453,0C1694,136 1679,134 1672,130C1665,126 1660,115 1657,98l-32,0l0,180l436,452C2079,749 2088,761 2088,768C2088,778 2077,784 2055,787l0,32l356,0l0,-31C2395,784 2384,780 2379,775C2373,770 2370,762 2370,751l0,-469l42,0C2424,282 2433,285 2438,290C2443,295 2448,305 2453,320l32,0l0,-222l-32,0C2448,113 2443,124 2438,129C2433,134 2424,136 2412,136l-42,0l0,-67C2370,58 2373,50 2378,45C2383,40 2394,35 2411,31l0,-31l-281,0l0,31C2147,35 2158,40 2163,45C2168,50 2171,58 2171,69M2171,282l0,330l-314,-330z"
   id="glyph2013" />
<glyph
   unicode="Ð"
   horiz-adv-x="1717"
   d="M188,608l-66,0C101,608 86,603 76,594C65,585 56,568 49,543l-32,0l0,327l32,0C56,845 65,829 76,820C86,811 101,806 122,806l66,0l0,454C188,1281 183,1296 174,1307C165,1318 148,1326 124,1333l0,32l760,0C1051,1365 1180,1346 1269,1308C1397,1253 1492,1161 1554,1034C1602,934 1626,817 1626,683C1626,447 1554,268 1409,145C1348,93 1277,56 1196,34C1115,11 1011,0 884,0l-760,0l0,32C148,39 165,47 174,58C183,69 188,84 188,105M486,806l305,0C811,806 826,811 837,821C848,830 856,847 863,870l32,0l0,-327l-32,0C856,567 848,584 837,594C826,603 811,608 791,608l-305,0l0,-383l373,0C979,225 1069,241 1129,274C1258,344 1322,480 1322,683C1322,830 1287,942 1218,1020C1179,1063 1133,1094 1078,1113C1023,1131 950,1140 859,1140l-373,0z"
   id="glyph2015" />
<glyph
   unicode="×"
   horiz-adv-x="1570"
   d="M785,544l-276,-276C495,254 488,240 488,225C488,213 494,196 507,175l-21,-21l-229,230l21,21C299,392 315,386 328,386C343,386 357,393 370,406l277,277l-277,276C357,972 343,979 328,979C315,979 299,973 278,961l-21,21l229,229l21,-21C494,1169 488,1152 488,1140C488,1125 495,1111 509,1098l276,-277l276,276C1075,1111 1082,1125 1082,1140C1082,1152 1076,1169 1063,1190l21,21l229,-229l-20,-21C1272,974 1255,980 1242,980C1228,980 1214,973 1200,959l-276,-276l276,-277C1214,393 1228,386 1242,386C1254,386 1271,392 1293,405l20,-21l-229,-230l-21,21C1076,196 1082,212 1082,225C1082,240 1075,254 1061,268z"
   id="glyph2017" />
<glyph
   unicode="Ý"
   horiz-adv-x="1460"
   d="M879,571l0,-466C879,84 884,69 894,58C903,47 920,39 944,32l0,-32l-429,0l0,32C539,39 556,47 566,58C576,69 581,84 581,105l0,466l-441,621C102,1245 72,1281 51,1300C29,1318 3,1329 -27,1333l0,32l539,0l0,-32C467,1326 445,1305 445,1271C445,1259 459,1233 486,1192l246,-366l253,366C1012,1231 1026,1258 1026,1272C1026,1287 1020,1301 1008,1312C996,1323 980,1330 959,1333l0,32l528,0l0,-32C1457,1329 1431,1318 1410,1300C1388,1281 1358,1245 1320,1192M998,1765l0,-27C972,1737 952,1728 939,1710l-142,-173C793,1532 791,1527 791,1521C791,1510 798,1505 812,1505C813,1505 814,1505 816,1505l0,-27l-217,0l0,27C615,1505 626,1507 633,1512C640,1517 646,1526 652,1541l66,163C721,1710 722,1715 722,1719C722,1730 713,1736 694,1738l0,27z"
   id="glyph2019" />
<glyph
   unicode="Þ"
   horiz-adv-x="1465"
   d="M485,1161l388,0C972,1161 1051,1154 1110,1141C1168,1128 1219,1105 1263,1072C1310,1038 1346,993 1371,937C1397,880 1410,820 1410,755C1410,662 1385,582 1336,513C1294,454 1238,412 1167,387C1096,362 998,349 873,349l-388,0l0,-244C485,84 490,69 500,58C509,47 526,38 549,32l0,-32l-426,0l0,32C147,39 164,47 173,58C182,69 187,84 187,105l0,1156C187,1281 182,1296 173,1307C164,1318 147,1326 123,1333l0,32l426,0l0,-32C525,1327 508,1319 499,1308C490,1297 485,1281 485,1261M485,574l360,0C935,574 998,584 1034,603C1058,616 1077,636 1091,664C1105,691 1112,722 1112,755C1112,788 1105,819 1091,847C1077,874 1058,894 1034,907C999,926 936,936 845,936l-360,0z"
   id="glyph2021" />
<glyph
   unicode="ð"
   horiz-adv-x="1463"
   d="M184,502l-53,0C111,502 96,497 85,488C74,478 65,461 59,438l-32,0l0,299l32,0C65,714 74,697 85,688C96,678 111,673 131,673l53,0l0,345C184,1039 179,1054 170,1065C161,1076 144,1085 120,1092l0,28l657,0C914,1120 1021,1103 1100,1069C1211,1021 1290,942 1339,831C1373,753 1390,663 1390,560C1390,369 1333,224 1219,125C1168,81 1107,49 1038,30C968,10 881,0 777,0l-657,0l0,28C143,34 160,43 170,54C179,65 184,81 184,102M452,673l209,0C682,673 697,678 708,687C719,696 727,713 734,737l32,0l0,-299l-32,0C727,462 719,479 708,488C697,497 682,502 661,502l-209,0l0,-299l286,0C869,203 965,233 1024,293C1086,356 1117,445 1117,560C1117,675 1086,763 1024,826C993,858 955,881 910,896C865,910 807,917 738,917l-286,0z"
   id="glyph2023" />
<glyph
   unicode="ý"
   horiz-adv-x="1226"
   d="M747,491l0,-389C747,81 752,66 761,55C770,44 787,34 811,27l0,-27l-396,0l0,27C439,34 456,43 465,54C474,65 479,81 479,102l0,389l-332,457C110,999 80,1035 58,1054C35,1073 9,1085 -22,1092l0,28l504,0l0,-28C439,1081 417,1060 417,1031C417,1016 433,987 464,943l163,-226l159,226C817,988 833,1017 833,1032C833,1060 812,1080 769,1092l-1,28l480,0l0,-28C1217,1085 1191,1073 1169,1054C1146,1035 1116,999 1079,948M894,1533l0,-27C868,1505 848,1496 835,1479l-142,-174C689,1300 687,1295 687,1289C687,1278 694,1273 708,1273C709,1273 710,1273 712,1273l0,-27l-217,0l0,27C511,1273 522,1275 529,1280C536,1285 542,1294 548,1309l66,163C617,1478 618,1483 618,1487C618,1498 609,1504 590,1506l0,27z"
   id="glyph2025" />
<glyph
   unicode="þ"
   horiz-adv-x="1239"
   d="M430,942l295,0C870,942 980,920 1053,877C1096,852 1129,816 1153,769C1177,722 1189,670 1189,612C1189,501 1151,418 1075,364C998,309 882,282 725,282l-295,0l0,-180C430,81 435,66 444,55C453,44 470,34 494,27l0,-27l-396,0l0,28C121,34 138,43 148,54C157,65 162,81 162,102l0,916C162,1039 157,1054 148,1065C139,1076 122,1085 98,1092l0,28l396,0l0,-28C470,1085 453,1077 444,1066C435,1055 430,1039 430,1018M430,485l286,0C787,485 836,492 863,505C903,525 923,561 923,612C923,664 903,700 863,719C836,732 787,739 716,739l-286,0z"
   id="glyph2027" />
<glyph
   unicode="Š"
   horiz-adv-x="1475"
   d="M1393,1250l-163,-321l-28,16C1203,952 1203,957 1203,961C1203,984 1184,1008 1145,1034C1026,1117 887,1158 727,1158C656,1158 594,1149 540,1132C501,1119 469,1099 445,1072C420,1045 408,1016 408,985C408,934 439,899 501,880C533,871 602,861 707,850l157,-16C957,824 1033,810 1091,793C1148,776 1199,751 1244,720C1289,687 1325,644 1352,591C1378,538 1391,481 1391,420C1391,324 1360,239 1298,164C1242,96 1155,46 1037,13C949,-12 855,-24 754,-24C573,-24 395,19 219,106C182,123 159,132 152,132C143,132 130,125 111,110l-29,15l148,335l29,-14C259,440 259,436 259,433C259,403 273,375 302,350C345,311 412,278 503,250C594,222 680,208 761,208C850,208 925,223 988,253C1023,270 1050,292 1071,320C1092,347 1102,376 1102,406C1102,451 1078,484 1029,503C995,516 926,529 823,540l-154,16C566,567 493,577 450,587C407,596 365,612 322,633C261,663 214,708 179,768C148,822 132,884 132,954C132,1069 172,1165 251,1240C355,1339 511,1389 719,1389C806,1389 888,1380 963,1363C1038,1345 1132,1312 1245,1265C1284,1250 1307,1242 1316,1242C1330,1242 1346,1250 1365,1265M868,1765l250,0l0,-27C1102,1737 1092,1736 1087,1733C1082,1730 1069,1717 1049,1696l-134,-149C908,1539 904,1531 904,1522C904,1511 915,1505 937,1505l0,-27l-316,0l0,27C641,1507 651,1513 651,1523C651,1530 646,1540 635,1552l-150,166C474,1731 459,1737 440,1738l0,27l287,0l0,-27C706,1736 696,1731 696,1723C696,1720 701,1713 712,1700l84,-104l93,107C894,1709 897,1715 897,1721C897,1731 887,1737 868,1738z"
   id="glyph2029" />
<glyph
   unicode="š"
   horiz-adv-x="1261"
   d="M1175,1019l-135,-261l-24,13C1016,793 1009,810 995,823C957,857 901,885 827,907C753,929 678,940 602,940C537,940 480,931 430,913C358,887 322,849 322,800C322,767 339,744 374,731C409,717 476,706 575,698l158,-12C871,675 976,649 1048,606C1088,582 1121,550 1147,510C1180,460 1196,404 1196,341C1196,227 1145,137 1042,71C944,8 811,-24 644,-24C475,-24 312,12 155,83C144,88 135,90 128,90C115,90 102,82 91,66l-25,10l115,274l25,-10C206,336 206,333 206,332C206,315 213,300 226,288C259,259 317,233 399,212C481,190 562,179 642,179C713,179 776,188 832,207C901,230 936,266 936,317C936,358 912,386 864,402C832,413 774,422 691,429l-157,13C449,449 385,457 340,468C295,479 256,494 223,515C180,542 147,578 123,624C99,670 87,720 87,775C87,898 140,991 245,1056C341,1115 460,1144 601,1144C678,1144 749,1136 816,1119C882,1102 961,1072 1053,1029C1080,1016 1099,1010 1110,1010C1121,1010 1134,1017 1151,1032M734,1533l250,0l0,-27C968,1505 958,1504 953,1501C948,1498 935,1485 915,1464l-134,-149C774,1307 770,1299 770,1290C770,1279 781,1273 803,1273l0,-27l-316,0l0,27C507,1275 517,1281 517,1291C517,1298 512,1308 501,1320l-150,166C340,1499 325,1505 306,1506l0,27l287,0l0,-27C572,1504 562,1499 562,1491C562,1488 567,1481 578,1468l84,-103l93,106C760,1477 763,1483 763,1489C763,1499 753,1505 734,1506z"
   id="glyph2031" />
<glyph
   unicode="¤"
   horiz-adv-x="1570"
   d="M1305,306l102,-102C1422,189 1438,181 1454,181C1467,181 1484,187 1504,198l23,-22l-235,-235l-23,23C1281,-16 1287,0 1287,13C1287,29 1279,45 1263,60l-120,120C1036,126 917,99 786,99C651,99 531,126 426,180l-120,-120C291,45 283,29 283,13C283,0 289,-16 301,-36l-23,-23l-235,235l23,22C86,187 102,181 115,181C131,181 147,189 162,204l103,103C192,411 156,536 156,682C156,828 192,954 265,1059l-103,102C147,1177 131,1185 115,1185C102,1185 86,1179 66,1167l-23,23l235,234l23,-22C289,1382 283,1365 283,1352C283,1336 291,1320 306,1305l121,-120C530,1239 650,1266 786,1266C921,1266 1040,1239 1143,1184l120,121C1279,1321 1287,1337 1287,1352C1287,1365 1281,1381 1269,1402l23,22l235,-234l-23,-23C1483,1179 1467,1185 1455,1185C1439,1185 1423,1177 1407,1161l-101,-101C1378,957 1414,831 1414,682C1414,535 1378,410 1305,306M784,1054C677,1054 590,1017 523,943C460,874 429,788 429,683C429,578 460,492 523,423C590,348 678,311 785,311C892,311 980,348 1047,423C1110,491 1141,576 1141,678C1141,786 1110,874 1047,943C981,1016 893,1053 784,1054z"
   id="glyph2033" />
</font>
</defs>
</svg>
